Торрент файл
скачать торрент магнет ссылка Добавлен: 07 янв 2012, 17:46
Размер: 7.36 ГБ
Сидеров: 0
Личеров: 3
Автор

СообщениеДобавлено: 07 янв 2012, 17:46 

Не в сети
Супермодератор
Аватара пользователя
Дата регистрации:
11 апр 2010, 18:10
Спасибо: 5802 / 7
Сообщения: 56779
Бунраку / Bunraku


Перевод: Профессиональный (многоголосый, закадровый)
Субтитры:Украинские
Формат: DVD9, DVD Video, MPEG2, AC3
Страна: США
Режиссер: Гай Моше
Жанр: боевик, триллер, драма
Продолжительность: 01:59:18
Год выпуска: 2010

В ролях: Джош Хартнетт, Вуди Харрельсон, Гакт Камуи, Рон Перлман, Деми Мур, Кевин МакКидд, Сюн Сугата, Жорди Молья, Эмили Кайхо, Майк Паттон

Описание: Таинственный скиталец и молодой японский воин прибывают в терроризируемый преступниками город. У каждого своя миссия, но вскоре они объединяют силы, чтобы свергнуть коррумпированное господство........

Рейтинг на IMDB: 6.1/10
Рейтинг на КиноПоиске: 6.430
Рейтинг на MPAA: R

Видео: 720x576 (PAL16:9), MPEG-2 Video, 25.000 fps, ~ 7500 kbps avg
Аудио #1: Русский: 48.0 kHz, АС3, 6 ch, ~ 448 Kbps avg [Профессиональный (многоголосый, закадровый)]
Аудио #2: Английский: 48.0 kHz, АС3, 6 ch, ~ 448 Kbps avg [Оригинал]

Семпл

Дополнительно:
    Meню статичное, озвученное, на русском языке, с навигацией по эпизодам
  • Анонсы


    Фильм был снят за 12 недель на MediaPro Studios в Румынии.
  • Bunraku - японский крупномасштабный марионеточный театр.

Формат: MPEG-PS
Размер файла: 1024 Мбайт
Продолжительность: 18 м.
Режим общего битрейта: Переменный
Общий поток: 7856 Кбит/сек

Видео
Идентификатор: 224 (0xE0)
Формат: MPEG Video
Версия формата: Version 2
Профиль формата: Main@Main
Параметр BVOP формата: Да
Параметр матрицы формата: По умолчанию
Параметр GOP формата: M=3, N=12
Продолжительность: 18 м.
Вид битрейта: Переменный
Битрейт: 6804 Кбит/сек
Максимальный битрейт: 7500 Кбит/сек
Ширина: 720 пикселей
Высота: 576 пикселей
Соотношение сторон: 16:9
Частота кадров: 25,000 кадров/сек
Стандарт вещания: PAL
Цветовое пространство: YUV
Субдискретизация насыщенности: 4:2:0
Битовая глубина: 8 бит
Тип развёртки: Прогрессивная
Метод сжатия: С потерями
Бит/(Пиксели*Кадры): 0.656
Размер потока: 887 Мбайт (87%)

Аудио #1
Идентификатор: 189 (0xBD)-128 (0x80)
Формат: AC-3
Формат/Информация: Audio Coding 3
Расширение режима: CM (complete main)
Режим смешивания: DVD-Video
Продолжительность: 18 м.
Вид битрейта: Постоянный
Битрейт: 448 Кбит/сек
Каналы: 6 каналов
Расположение каналов: Front: L C R, Side: L R, LFE
Частота: 48,0 КГц
Битовая глубина: 16 бит
Метод сжатия: С потерями
Задержка видео: -256 мс.
Размер потока: 58,4 Мбайт (6%)

Аудио #2
Идентификатор: 189 (0xBD)-129 (0x81)
Формат: AC-3
Формат/Информация: Audio Coding 3
Расширение режима: CM (complete main)
Режим смешивания: DVD-Video
Продолжительность: 18 м.
Вид битрейта: Постоянный
Битрейт: 448 Кбит/сек
Каналы: 6 каналов
Расположение каналов: Front: L C R, Side: L R, LFE
Частота: 48,0 КГц
Битовая глубина: 16 бит
Метод сжатия: С потерями
Задержка видео: -256 мс.
Размер потока: 58,4 Мбайт (6%)

Текст
Идентификатор: 189 (0xBD)-32 (0x20)
Формат: RLE
Формат/Информация: Run-length encoding
Режим смешивания: DVD-Video

Меню























Поделиться:




реклама партнёра


Вернуться к началу
 Профиль Отправить личное сообщение  
 
   Похожие торренты   Автор   Торрент   Размер 
В этой теме нет новых непрочитанных сообщений. Плохие парни / Bad Boys [боевик, триллер, драма, 1995] DVD9, Mvo+Dub+Sub

salma3

18 | 6

4.91 ГБ

В этой теме нет новых непрочитанных сообщений. Кибер / Blackhat (Майкл Манн) [боевик, триллер, драма, криминал, детектив, 2015] DVD9, Dub+Sub [лицензия]

Dracon

0 | 0

6.83 ГБ

В этой теме нет новых непрочитанных сообщений. 13 часов: Тайные солдаты Бенгази / 13 Hours [боевик, триллер, драма, военный, 2016] DVD9, Dub [Лицензия]

salma3

33 | 10

7.35 ГБ

В этой теме нет новых непрочитанных сообщений. Need for Speed: Жажда скорости / Need for Speed [Боевик, триллер, драма, криминал, 2014] DVD9, Dub+Sub [Лицензия]

salma3

73 | 9

7.14 ГБ

В этой теме нет новых непрочитанных сообщений. Смертельные узы / Wedlock [Фантастика, боевик, триллер, 1991] DVD9, Dvo+Avo

salma3

7 | 7

6.75 ГБ

В этой теме нет новых непрочитанных сообщений. Плохие парни 2 / Bad Boys II [боевик, триллер, комедия, 2003] DVD9, Dub+Sub

salma3

23 | 8

5.66 ГБ

В этой теме нет новых непрочитанных сообщений. Дивергент / Divergent [Фантастика, боевик, триллер, приключения, 2014] DVD9, Dub [Лицензия]

salma3

75 | 9

7.16 ГБ


Начать новую тему Ответить на тему  [ 1 сообщение ] 




Для Мосгорсуда, Роскомнадзора и рекламодателей:: mosgorsud-torrent[собачка]yandex.ru