Торрент файл
скачать торрент магнет ссылка Добавлен: 07 янв 2012, 17:46
Размер: 7.7 ГБ
Сидеров: 3
Личеров: 32
Автор

СообщениеДобавлено: 07 янв 2012, 17:46 

Не в сети
Супермодератор
Аватара пользователя
Дата регистрации:
11 апр 2010, 18:10
Спасибо: 5798 / 7
Сообщения: 56779
Вендетта по-русски / Крестная дочь( 8 серий из 8 )


Перевод: Не требуется
Субтитры: Отсутствуют
Формат: DVD9, DVD Video, MPEG2, AC3
Страна: Россия
Режиссер: Олег Туранский
Жанр: триллер, криминал
Продолжительность: 8 х ~ 00:46:06
Год выпуска: 2011

В ролях: Анатолий Журавлев, Николай Добрынин, Константин Соловьев, Евгения Лоза, Дмитрий Лабуш, Александр Тютин, Владимир Яковлев, Иван Агапов, Виталий Альшанский, Юрий Шлыков

Описание: Действие сериала происходит в двух странах — России и вымышленной стране Хаджестан, расположенной где-то в средней Азии. Наркобарон Константин Олейник давно конфликтует со своим хаджестанским поставщиком Фарадом Батыровым. Наконец Олейник решает уничтожить своего конкурента. Заказ на убийство Батырова Олейник передает двум безутешным отцам — летчику Зубову и спецназовцу Суханову.
Несколько лет назад Батыров убил наркоманку Галину, которая первому приходилась родной, а второму — крестной дочерью. Киллеры, у которых с Батыровым собственные счеты, отправляются в Хаджестан. В мафиозные разборки оказывается втянута молодая и незадачливая журналистка, которая из любопытства залезает в самолет киллеров…
Тем временем московские оперативники, капитан Максим Платов и лейтенант Даниил Поляков, занимаются расследованием ряда заказных убийств. Вскоре оперативники начинают понимать, что ввязались в опасную игру: дело касается торговли наркотиками, которую ведут два крупнейших наркобарона.…...


Рейтинг КиноПоиск.RU:4.909

Видео: 720x576 (PAL 16:9), MPEG 2 Video, 25,000 fps, ~6000 kbps avg
Аудио:Русский: 48 kHz, AC3, 2 ch, ~192 kbps avg

Семпл

Дополнительно:
    Meню статичное, озвученное, на русском языке, с навигацией по эпизодам


Формат : MPEG-PS
Размер файла : 10,7 Мбайт
Продолжительность : 28 с.
Режим общего битрейта : Переменный
Общий поток : 3198 Кбит/сек

Видео
Идентификатор : 224 (0xE0)
Формат : MPEG Video
Версия формата : Version 2
Профиль формата : Main@Main
Параметр BVOP формата : Да
Параметр матрицы формата : По умолчанию
Параметр GOP формата : M=3, N=15
Продолжительность : 19 с.
Вид битрейта : Переменный
Битрейт : 2943 Кбит/сек
Максимальный битрейт : 6000 Кбит/сек
Ширина : 720 пикселей
Высота : 576 пикселей
Соотношение сторон : 16:9
Частота кадров : 25,000 кадров/сек
Стандарт вещания : PAL
Цветовое пространство : YUV
Субдискретизация насыщенности : 4:2:0
Битовая глубина : 8 бит
Тип развёртки : Чересстрочная
Порядок развёртки : Нижнее поле первое
Метод сжатия : С потерями
Бит/(Пиксели*Кадры) : 0.284
Размер потока : 6,99 Мбайт (65%)

Аудио
Идентификатор : 189 (0xBD)-128 (0x80)
Формат : AC-3
Формат/Информация : Audio Coding 3
Расширение режима : CM (complete main)
Режим смешивания : DVD-Video
Продолжительность : 28 с.
Вид битрейта : Постоянный
Битрейт : 192 Кбит/сек
Каналы : 2 канала
Расположение каналов : Front: L R
Частота : 48,0 КГц
Битовая глубина : 16 бит
Метод сжатия : С потерями
Размер потока : 660 Кбайт (6%)

Меню





















Поделиться:




реклама партнёра


Вернуться к началу
 Профиль Отправить личное сообщение  
 
   Похожие торренты   Автор   Торрент   Размер 
В этой теме нет новых непрочитанных сообщений. Дочь / Aatma [ужасы, триллер, драма, криминал, 2006] SATRip, Mvo

salma3

4 | 10

1.04 ГБ

В этой теме нет новых непрочитанных сообщений. Дочь Бога / Exposed [Триллер, драма, криминал, детектив, 2016] HDRip-AVC, mVO [iTunes]

marya111

79 | 10

749.08 МБ

В этой теме нет новых непрочитанных сообщений. Дочь Бога / Exposed [триллер, драма, криминал, детектив, 2016] BDRip, mvo [iTunes]

marya111

141 | 11

1.41 ГБ

В этой теме нет новых непрочитанных сообщений. Рони, дочь разбойника / Ронья, дочь разбойника / Sanzoku no Musume Ronja [TV] [01-22 из 26] (Миядзаки Горо) [2014, приключения, сказка, HDTVRip 720p | LE-Production]

Nickolas3435

79 | 40

11.13 ГБ

В этой теме нет новых непрочитанных сообщений. Рони, дочь разбойника / Ронья, дочь разбойника / Sanzoku no Musume Ronja [TV] [01-23 из 26] (Миядзаки Горо) [2014, приключения, сказка, HDTVRip 720p | LE-Production]

Nickolas3435

19 | 8

11.63 ГБ

В этой теме нет новых непрочитанных сообщений. Вендетта леди Морган / La vendetta di Lady Morgan [Мистика, Триллер, 1965] DVDRip, Avo+Sub

salma3

24 | 3

1.47 ГБ

В этой теме нет новых непрочитанных сообщений. Дочь за отца [Серия 1-4 из 4] (Глеб Якубовский) [Криминал, Мелодрама, 2015] SATRip

Dracon

37 | 0

2.43 ГБ


Начать новую тему Ответить на тему  [ 1 сообщение ] 




Для Мосгорсуда, Роскомнадзора и рекламодателей:: mosgorsud-torrent[собачка]yandex.ru