Торрент файл
скачать торрент магнет ссылка Добавлен: 06 янв 2012, 10:32
Размер: 6.21 ГБ
Сидеров: 1
Личеров: 2
Автор

СообщениеДобавлено: 06 янв 2012, 10:32 

Не в сети
Супермодератор
Аватара пользователя
Дата регистрации:
14 июн 2010, 21:00
Возраст: 29
Спасибо: 1337 / 1
Сообщения: 5611
Откуда: НиНО
[font='Times New Roman']Багровые реки / Les rivieres pourpres[/font]
Страна: Франция
Студия: Gaumont
Жанр: триллер, детектив
Год выпуска: 2000
Продолжительность: 01:41:29
Перевод: Профессиональный (многоголосый закадровый)
Перевод (2): Профессиональный (дублированный)
Перевод (3): Авторский (одноголосый закадровый) А. Гаврилов
Cубтитры: русские
Оригинальная аудиодорожка: французский
Режиссер: Матьё Кассовиц / Mathieu Kassovitz
В ролях: Жан Рено, Венсан Кассель, Надя Фарес, Доминик Санда, Карим Бельхадра, Жан-Пьер Кассель, Дидье Фламан, Франсуа Леванталь, Франсин Берже, Филипп Наон
Описание: В престижном колледже в Альпах совершено зверское убийство, которое расследует опытный комиссар полиции Пьер Ньеманс. Тем временем в другом местечке происходит еще одно, весьма странное преступление кто-то раскапывает и оскверняет могилу 10-летней девочки.Это дело ведет молодой детектив Макс Керкерьян. Кажется, между данными событиями нет связи. Но она существует! И когда оба полицейских обнаруживают ее, доселе виденные ими заурядные злодеяния постепенно меркнут по сравнению с тем сердцем тьмы, куда приведут их поиски правды. Смертельно опасной правды
Доп. информация: собрано на базе R5. английская дорожка заменена на русский дубляж, добавлен гаврилов. перерисовано меня выбора дорожек...
сэмпл
демукс - pgcdemux; работа со звуком - Tranzcode, Sound Forge Pro, Vegas Pro; мукс - muxman; перерисовка меню - Photoshop; подмена потоков - DVDRemake Pro. тестировалось софтварно - mpc, ArcSoft TotalMedia Theatre 3
Бонусы: 2 дорожки с коментариями на французском языке, рекламные ролики
Меню: русское, статичное
Качество: DVD9 (Custom)
Контейнер: DVD-Video
Видео: MPEG2, PAL, 720*576, 16:9, 5677kbps, 25fps
Аудио: Французский / оригинал, AC3, 5.1, 48kHz, 448kbps
Аудио 2: Русский / многоголосый, AC3, 5.1, 48kHz, 448kbps
Аудио 3: Русский / дублированный, AC3, 2.0, 48kHz, 384kbps
Аудио 4: Русский / авторский, AC3, 5.1, 48kHz, 448kbps
Субтитры: русские, английские, хинди
MediaInfo
General
Complete name : E:\Les rivieres pourpres\VIDEO_TS\VTS_01_1.VOB
Format : MPEG-PS
File size : 1 024 MiB
Duration : 17mn 8s
Overall bit rate : 8 348 Kbps
Video
ID : 224 (0xE0)
Format : MPEG Video
Format version : Version 2
Format profile : Main@Main
Format settings, BVOP : Yes
Format settings, Matrix : Default
Duration : 17mn 8s
Bit rate mode : Variable
Bit rate : 5 814 Kbps
Nominal bit rate : 9 800 Kbps
Width : 720 pixels
Height : 576 pixels
Display aspect ratio : 16:9
Frame rate : 25.000 fps
Standard : PAL
Color space : YUV
Chroma subsampling : 4:2:0
Bit depth : 8 bits
Scan type : Interlaced
Scan order : Top Field First
Bits/(Pixel*Frame) : 0.561
Stream size : 713 MiB (70%)
Audio #1
ID : 128 (0x80)
Format : AC-3
Format/Info : Audio Coding 3
Mode extension : CM (complete main)
Duration : 17mn 8s
Bit rate mode : Constant
Bit rate : 448 Kbps
Channel(s) : 6 channels
Channel positions : Front: L C R, Side: L R, LFE
Sampling rate : 48.0 KHz
Stream size : 54.9 MiB (5%)
Audio #2
ID : 129 (0x81)
Format : AC-3
Format/Info : Audio Coding 3
Mode extension : CM (complete main)
Duration : 17mn 8s
Bit rate mode : Constant
Bit rate : 448 Kbps
Channel(s) : 6 channels
Channel positions : Front: L C R, Side: L R, LFE
Sampling rate : 48.0 KHz
Stream size : 54.9 MiB (5%)
Audio #3
ID : 130 (0x82)
Format : AC-3
Format/Info : Audio Coding 3
Mode extension : CM (complete main)
Duration : 17mn 8s
Bit rate mode : Constant
Bit rate : 384 Kbps
Channel(s) : 2 channels
Channel positions : Front: L R
Sampling rate : 48.0 KHz
Stream size : 47.1 MiB (5%)
Audio #4
ID : 131 (0x83)
Format : AC-3
Format/Info : Audio Coding 3
Format profile : Dolby Digital
Mode extension : CM (complete main)
Duration : 17mn 8s
Bit rate mode : Constant
Bit rate : 192 Kbps
Channel(s) : 2 channels
Channel positions : Front: L R
Sampling rate : 48.0 KHz
Stream size : 23.5 MiB (2%)
Audio #5
ID : 132 (0x84)
Format : AC-3
Format/Info : Audio Coding 3
Mode extension : CM (complete main)
Duration : 17mn 8s
Bit rate mode : Constant
Bit rate : 448 Kbps
Channel(s) : 6 channels
Channel positions : Front: L C R, Side: L R, LFE
Sampling rate : 48.0 KHz
Stream size : 54.9 MiB (5%)
Audio #6
ID : 133 (0x85)
Format : AC-3
Format/Info : Audio Coding 3
Mode extension : CM (complete main)
Duration : 17mn 8s
Bit rate mode : Constant
Bit rate : 448 Kbps
Channel(s) : 6 channels
Channel positions : Front: L C R, Side: L R, LFE
Sampling rate : 48.0 KHz
Stream size : 54.9 MiB (5%)
Menu
Скриншоты меню
Скриншоты




реклама партнёра


Вернуться к началу
 Профиль Отправить личное сообщение  
 
   Похожие торренты   Автор   Торрент   Размер 
В этой теме нет новых непрочитанных сообщений. Синяя комната / La chambre bleue (Матьё Амальрик / Mathieu Amalric) [2014г., Франция, детектив, драма, DVDRip] Sub

Alfredovich

23 | 8

1.61 ГБ

В этой теме нет новых непрочитанных сообщений. Никому не известный / Un illustre inconnu (Матьё Делапорт / Mathieu Delaporte) [2014г., Франция, драма, триллер, HDTVRip] sub

Alfredovich

0 | 0

1.34 ГБ

В этой теме нет новых непрочитанных сообщений. Прибытие / Arrival [Фантастика, триллер, драма, детектив, 2016] DVD9, Dub+Mvo+Avo+Sub [Custom]

salma3

39 | 20

7.42 ГБ

В этой теме нет новых непрочитанных сообщений. Отмель / The Shallows [Ужасы, триллер, драма, 2016] DVD9, Dub [Custom]

salma3

58 | 17

5.87 ГБ

В этой теме нет новых непрочитанных сообщений. Расплата / The Accountant [Боевик, триллер, драма, криминал, 2016] DVD9, Dub+Avo+Sub [Custom]

salma3

28 | 29

7.36 ГБ

В этой теме нет новых непрочитанных сообщений. Случайный шпион / The Accidental Spy / Dak miu mai shing [боевик, триллер, комедия, 2000] HDRip, Avo [Гаврилов]

salma3

18 | 2

1.46 ГБ

В этой теме нет новых непрочитанных сообщений. Убийства в аббатстве Сент-Уэн / Meurtres a l'abbaye de Rouen (детектив, триллер) [2014г., Франция, детектив, триллер, DVB] Sub

Alfredovich

13 | 7

2.26 ГБ


Начать новую тему Ответить на тему  [ 1 сообщение ] 




Для Мосгорсуда, Роскомнадзора и рекламодателей:: mosgorsud-torrent[собачка]yandex.ru