Торрент файл
скачать торрент магнет ссылка Добавлен: 06 янв 2012, 10:31
Размер: 6.06 ГБ
Сидеров: 1
Личеров: 3
Автор

СообщениеДобавлено: 06 янв 2012, 10:31 

Не в сети
Супермодератор
Аватара пользователя
Дата регистрации:
14 июн 2010, 21:00
Возраст: 28
Спасибо: 1324 / 1
Сообщения: 5644
Откуда: НиНО
Киноман / Cineman«Cet homme est professeur de mathématiques»Страна: Франция
Студия: Banque Populaire Images 8, Canal+ [fr], Fortis Film Fund, Le Tax Shelter du Gouvernement Fédéral de Belgique, Région Wallone, SAJ, Scope Pictures, TF1 Films Production
Жанр: фэнтези, мелодрама, комедия
Год выпуска: 2009
Продолжительность: 01:28:43
Перевод: Профессиональный (многоголосый) [Лицензия]
Cубтитры: русский
Оригинальная аудиодорожка: французский
Режиссер: Янн Муа / Yann Moix
В ролях: Франк Дюбоск, Люси Гордон, Пьер-Франсуа, Мартен-Лаваль, Пьер Ришар, Оливер Маг, Энн Маривин, Жан-Кристоф Буве, Мишель Галабрю, Мариса Беренсон, Оливье Даза...
Описание: Невзрачный преподаватель математики неожиданно для себя получил возможность путешествовать по всем кинематографическим жанрам — из фильма в фильм. То он примеряет маску Зорро, то становится ковбоем из диких прерий… В одном из фильмов он встречает женщину своей мечты и делает всё возможное и невозможное, чтобы забрать её с собой, в реальность...

Бюджет: €22 000 000
Доп. материалы: нет
Качество: DVD9 (custom), источник видео: DVD9 R5 от "Вольга"
Формат: DVD-Video
Видео: PAL 16:9 (720x576) MPEG Video, 25.000 кадр/сек, 8500 Кбит/сек CBR, Auto Pan&Scan, Auto Letterboxed
Аудио 1: Русский (Dolby AC3, 6 ch) 448 Кбит/сек, 48,0 КГц
Аудио 2: Французский (Dolby AC3, 6 ch) 448 Кбит/сек, 48,0 КГц
Меню: анимированное
Процесс изготовления
Из исходника удалены все звуки, добавлен русский звук АС3 448 кбпс, полученный конвертацией из русского DTS исходника, оригинальный французский звук АС3 448 кбпс взят из моего релиза этого фильма http://rutracker.org/forum/viewtopic.php?t=2847830 (звук пришлось подвигать, поскольку не совсем всё совпадало. Ну и в последнее время "Вольга" балует нас некачественными лицензиями, особенно в части звуковых дорожек, суммарный общий битрейт диска таков, что не удалось сохранить все звуковые дорожки, я пожертвовал DTS), меню полностью переведено в статику, ненужная кнопка звука затерта. Команды диска подправлены. Использовались программы: Фотошоп, MuxMan и DVDRemake. Обработка звука: Tranz, Vegas Pro, Adobe Audition.
DVDInfo полученного диска
Title: Kinoman.2009.P.DVD9
Size: 6.06 Gb ( 6 352 724,00 KBytes ) - DVD-9
Enabled regions: 1, 2, 3, 4, 5, 6, 7, 8
VTS_01 :
Play Length: 00:00:10
Video: PAL 16:9 (720x576) VBR, Auto Pan&Scan, Auto Letterboxed
VTS_02 :
Play Length: 00:00:06
Video: PAL 16:9 (720x576) VBR, Auto Pan&Scan, Auto Letterboxed
VTS_03 :
Play Length: 01:28:43
Video: PAL 16:9 (720x576) VBR, Auto Pan&Scan, Auto Letterboxed
Audio:
Russian, AC3, 3/2 (L,C,R,SL,SR)+LFE ch, 448 kbps, Delay 0 mSec
Francais, AC3, 3/2 (L,C,R,SL,SR)+LFE ch, 448 kbps, Delay 0 mSec
Subtitles:
Russian
MediaInfo
Общее
Полное имя : Kinoman.2009.P.DVD9\VIDEO_TS\VTS_03_1.VOB
Формат : MPEG-PS
Размер файла : 1024 Мбайт
Продолжительность : 14 м.
Общий поток : 9560 Кбит/сек
Видео
Идентификатор : 224 (0xE0)
Формат : MPEG Video
Версия формата : Version 2
Профиль формата : Main@Main
Параметр BVOP формата : Да
Параметр матрицы формата : По умолчанию
Параметры GOP формата : M=3, N=15
Продолжительность : 14 м.
Вид битрейта : Переменный
Битрейт : 8500 Кбит/сек
Ширина : 720 пикс.
Высота : 576 пикс.
Соотношение сторон : 16:9
Частота кадров : 25,000 кадр/сек
Стандарт вещания : PAL
Цветовое пространство : YUV
Подвыборка цветности : 4:2:0
Битовая глубина : 8 бит
Тип развёртки : Чересстрочная
Порядок развёртки : Верхнее поле первое
Метод сжатия : С потерями
Бит/(Пиксели*Кадры) : 0.820
Размер потока : 908 Мбайт (89%)
Аудио #1
Идентификатор : 189 (0xBD)-128 (0x80)
Формат : AC-3
Формат/Информация : Audio Coding 3
Расширение режима : CM (complete main)
Режим смешивания : DVD-Video
Продолжительность : 14 м.
Вид битрейта : Постоянный
Битрейт : 448 Кбит/сек
Каналы : 6 каналов
Расположение каналов : Front: L C R, Side: L R, LFE
Частота : 48,0 КГц
Битовая глубина : 16 бит
Метод сжатия : С потерями
Размер потока : 48,0 Мбайт (5%)
Аудио #2
Идентификатор : 189 (0xBD)-129 (0x81)
Формат : AC-3
Формат/Информация : Audio Coding 3
Расширение режима : CM (complete main)
Режим смешивания : DVD-Video
Продолжительность : 14 м.
Вид битрейта : Постоянный
Битрейт : 448 Кбит/сек
Каналы : 6 каналов
Расположение каналов : Front: L C R, Side: L R, LFE
Частота : 48,0 КГц
Битовая глубина : 16 бит
Метод сжатия : С потерями
Размер потока : 48,0 Мбайт (5%)
Текст
Идентификатор : 189 (0xBD)-32 (0x20)
Формат : RLE
Формат/Информация : Run-length encoding
Режим смешивания : DVD-Video
Меню
Скриншоты меню
Скриншоты
Раздача от группы:




реклама партнёра


Вернуться к началу
 Профиль Отправить личное сообщение  
 
   Похожие торренты   Автор   Торрент   Размер 
В этой теме нет новых непрочитанных сообщений. В поисках Дори / Finding Dory (Мультфильм, комедия, приключения, семейный, 2016) DVD9 | Custom

marya111

29 | 18

6.39 ГБ

В этой теме нет новых непрочитанных сообщений. Милу в мае / Milou en mai (Луи Маль / Louis Malle)[1989г., Франция, мелодрама, комедия, DVDRip] MVO

Alfredovich

10 | 2

1.46 ГБ

В этой теме нет новых непрочитанных сообщений. Друзья / Les deux amis (Луи Гаррель / Louis Garrel) [2015, Франция, Мелодрама, комедия, WEB-DLRip] MVO

Alfredovich

1921 | 142

1.45 ГБ

В этой теме нет новых непрочитанных сообщений. Токийская невеста / Tokyo Fiancée (Стефан Либерски / Stefan Liberski) [2014г., Франция, комедия, мелодрама, BDRip ] DUB

Alfredovich

164 | 7

2.05 ГБ

В этой теме нет новых непрочитанных сообщений. Пощечина / La gifle (Клод Пиното / Claude Pinoteau) [1974г., Франция, Италия, драма, мелодрама, комедия, BDRip-AVC] DVO + MVO + Sub

Alfredovich

2 | 2

2.18 ГБ

В этой теме нет новых непрочитанных сообщений. Друг моей подруги / L'ami de mon amie (Эрик Ромер / Eric Rohmer) [1987г., Франция, драма, мелодрама, комедия, BDRip] MVO

Alfredovich

3 | 0

1.45 ГБ

В этой теме нет новых непрочитанных сообщений. Токийская невеста / Tokyo Fiancée (Стефан Либерски / Stefan Liberski) [2014г., Франция, комедия, мелодрама, BDRip 720p] DUB

Alfredovich

486 | 17

3.42 ГБ


Начать новую тему Ответить на тему  [ 1 сообщение ] 




Для Мосгорсуда, Роскомнадзора и рекламодателей:: mosgorsud-torrent[собачка]yandex.ru