Торрент файл
скачать торрент магнет ссылка Добавлен: 06 янв 2012, 10:26
Размер: 4.33 ГБ
Сидеров: 2
Личеров: 3
Автор

СообщениеДобавлено: 06 янв 2012, 10:26 

Не в сети
Супермодератор
Аватара пользователя
Дата регистрации:
14 июн 2010, 21:00
Возраст: 28
Спасибо: 1324 / 1
Сообщения: 5644
Откуда: НиНО

Шестое чувство / The Sixth Sense
Страна: США
Жанр: Триллер, мистика, драма
Год выпуска: 1999
Продолжительность: 01:47:29
Перевод: Профессиональный (дублированный) R5
Cубтитры: русские, английские
Оригинальная аудиодорожка: английская
Режиссер: М. Найт Шьямалан / M. Night Shyamalan
В ролях: Брюс Уиллис, Хэйли Джоэл Осмент, Тони Коллетт, Оливия Уильямс, Миша Бартон, Донни Уолберг, Брюс Норрис, Гленн Фицджералд, Тревор Морган, Анджелика Торн
Описание: Детский психиатр Малкольм Кроу сталкивается со странным случаем: восьмилетнего Коула посещают страшные видения - призраки умерших. Все эти люди когда - то были убиты, и теперь они обрушивают на малыша свой гнетущий страх и отчаянный гнев. Как врач, Малкольм бессилен помочь. Но как человек, он пытается найти ключ к ужасному миру Коула, в котором веет дыхание смерти и распускаются страшные цветы боли.
Доп. информация:
Видео, звуковые дорожки, английские и русские субтитры взяты из Blu-ray(26.27 GB). За него спасибо HANSMER. Видео сжималось Canopus ProCoder в 2 прохода. Меню взято из DVD. За это спасибо Kranium. Релиз сделан по мануалу Mikky72 при поддержке ZVNV и AlexD555. Большое спасибо этим людям.
Меню: Меню статичное, озвученное, на английском языке языке, с навигацией по эпизодам.
Релиз группы
Тип релиза: DVD5 (Custom)
Контейнер: DVD-Video
Видео кодек: MPEG2
Аудио кодек: AC3
Видео: NTSC 720х480
Аудио: Профессиональный (Дублированный) (Dolby AC3, 6 ch, 384 Kbps) R5
Аудио 2: Английский (Dolby AC3, 6 ch, 448 Kbps)
MediaInfo
Общее
Полное имя : D:\BD to DVD9\dvd\VTS_01_1.VOB
Формат : MPEG-PS
Размер файла : 1024 Мбайт
Продолжительность : 26 м.
Общий поток : 5346 Кбит/сек
Видео
Идентификатор : 224 (0xE0)
Формат : MPEG Video
Версия формата : Version 2
Профиль формата : Main@Main
Параметр BVOP формата : Да
Параметр матрицы формата : По умолчанию
Продолжительность : 26 м.
Вид битрейта : Переменный
Битрейт : 4408 Кбит/сек
Номинальный битрейт : 8800 Кбит/сек
Ширина : 720 пикс.
Высота : 480 пикс.
Соотношение сторон : 16:9
Частота кадров : 23,976 кадр/сек
Стандарт вещания : NTSC
Цветовое пространство : YUV
Подвыборка цветности : 4:2:0
Битовая глубина : 8 бит
Тип развёртки : Прогрессивная
Порядок развёртки : 2:3 Pulldown
Метод сжатия : С потерями
Бит/(Пиксели*Кадры) : 0.532
Размер потока : 844 Мбайт (82%)
Аудио #1
Идентификатор : 128 (0x80)
Формат : AC-3
Формат/Информация : Audio Coding 3
Расширение режима : CM (complete main)
Продолжительность : 26 м.
Вид битрейта : Постоянный
Битрейт : 384 Кбит/сек
Канал(ы) : 6 канала(ов)
Расположение каналов : Front: L C R, Side: L R, LFE
Частота : 48,0 КГц
Битовая глубина : 16 бит
Метод сжатия : С потерями
Размер потока : 73,5 Мбайт (7%)
Аудио #2
Идентификатор : 129 (0x81)
Формат : AC-3
Формат/Информация : Audio Coding 3
Расширение режима : CM (complete main)
Продолжительность : 26 м.
Вид битрейта : Постоянный
Битрейт : 448 Кбит/сек
Канал(ы) : 6 канала(ов)
Расположение каналов : Front: L C R, Side: L R, LFE
Частота : 48,0 КГц
Битовая глубина : 16 бит
Метод сжатия : С потерями
Размер потока : 85,8 Мбайт (8%)
Программы, используемые при создание этого релиза
видео
Canopus Procoder - конвертация видео
AviSynth 2.5 - обработка видео
DGIndexNV - индексирование
програмы для разборки/сборки ДВД
PgcDemux - демукс исходного DVD
tsMuxeR - разборка ремукса
MuxMan - сборка видео
работа со звуком
DelayCut - синхронизация звука
Tranzcode - разборка оригинальной дорожки
Vegas Pro 9.0- сборка АС3 дорожки
работа с субтитрами
DVDSubEdit - корректировка таймингов и расположения на экране субтитров
BDSup2Sub - конвертация субтитров из BD в DVD
работа с меню и реавторинг
DVDReMakePro - реавторинг диска
script.avs
LoadPlugin("C:\Program Files (x86)\AviSynth 2.5\plugins\DGDecodeNV.dll")
DGSource("D:\BD to DVD9\MKV_Temp\00000.track_4113.dgi")
LoadPlugin("D:\BD to DVD9\programs\autoyuy2\AutoYUY2.dll") #более медленный, но качественный инструмент конверсии цветового пространства
AutoYUY2()
#Coloryuv(analyze=true) #проверка, цветового диапазона
LoadPlugin("D:\BD to DVD9\programs\ColorMatrix\ColorMatrix.dll")
ColorMatrix(mode="Rec.709->Rec.601", inputFR=false, clamp=0) #корректировка цветовой шкалы, если проверка показывает 16-235
#AssumeFPS("ntsc_film")
BicubicResize(720, 480, 0, 0.5) #ресайз методом Catmull-Rom spline
#AddBorders (0,0,0,0) #bbb=00
Скриншоты меню
Скриншоты
Обложка
Советую записывать диски программой ImgBurn. Подробная инструкция.Узнать план выхода релизов BLU-RAY>DVD, оставить пожелание на изготовление такого DVD, а также посмотреть полный каталог готовых релизов вы можете в этой теме.




реклама партнёра


Вернуться к началу
 Профиль Отправить личное сообщение  
 
   Похожие торренты   Автор   Торрент   Размер 
В этой теме нет новых непрочитанных сообщений. Визит / The Visit (М. Найт Шьямалан) [Ужасы, триллер, 2015] HDRip, Dub

Dracon

11811 | 778

1.37 ГБ

В этой теме нет новых непрочитанных сообщений. Визит / The Visit (М. Найт Шьямалан) [Ужасы, триллер, 2015] BDRip 720p, avo

Dracon

1050 | 90

4.46 ГБ

В этой теме нет новых непрочитанных сообщений. Визит / The Visit (М. Найт Шьямалан) [2015, ужасы, триллер, HDRip | Лицензия] Dub

Nickolas3435

2730 | 144

1.45 ГБ

В этой теме нет новых непрочитанных сообщений. Визит / The Visit (М. Найт Шьямалан) [Ужасы, триллер, 2015] BDRip 1080p, avo

Dracon

124 | 20

7.98 ГБ

В этой теме нет новых непрочитанных сообщений. Аватар: Легенда о Корре / The Legend of Korra [S01: Серии 1-12 из 12] / [фэнтези, боевик, 2012] BDRemux 1080p, Dub, MVO, DVO, Orig, Subs (Rus, Eng) [Лицензия]

hobbit1021

0 | 3

82.42 ГБ

В этой теме нет новых непрочитанных сообщений. Каникулы на ранчо / Horse Sense [драма, семейный, 1999] VHSRip, Mvo

salma3

9 | 5

1.26 ГБ

В этой теме нет новых непрочитанных сообщений. Каникулы на ранчо / Horse Sense [драма, семейный, 1999] TVRip-AVC, Mvo

salma3

18 | 7

1.36 ГБ


Начать новую тему Ответить на тему  [ 1 сообщение ] 




Для Мосгорсуда, Роскомнадзора и рекламодателей:: mosgorsud-torrent[собачка]yandex.ru