Торрент файл
скачать торрент магнет ссылка Добавлен: 05 янв 2012, 22:40
Размер: 7.08 ГБ
Сидеров: 0
Личеров: 6
Автор

СообщениеДобавлено: 05 янв 2012, 22:40 

Не в сети
Супермодератор
Аватара пользователя
Дата регистрации:
11 апр 2010, 18:10
Спасибо: 5960 / 7
Сообщения: 56765
Благочестивая Марта [Ремастеринг](2 серии из 2)

Перевод: Не требуется
Субтитры: отсутствуют
Формат: DVD9, DVD Video, MPEG2, AC3
Страна: СССР
Режиссер: Ян Фрид
Жанр: Комедия
Продолжительность: 01:03:49 + 01:12:13
Год выпуска: 1980
В ролях: Маргарита Терехова, Эммануил Виторган, Николай Караченцов, Светлана Тома, Владислав Стржельчик, Олег Видов, Павел Кадочников, Екатерина Райкина, Петр Кадочников, Е. Каменская

Описание: Двое бедных испанских студентов отправляются на поиски счастья в Мадрид. Здесь они решают устроить свою судьбу, женившись на девушках из дворянской семьи. Но одну из них — Марту — отец прочит за богатого престарелого дворянина. Девушка, не желая выходить за старика, выдает себя за недотрогу, давшую обет девственности. Марте удается убедить отца в своем благочестии, а ее престарелый кандидат в мужья, проявив благородство, отказывается от брака в пользу более молодого претендента и даже выделяет ей приданое.

Рейтинг на КиноПоиск:7.737[/field]
Рейтинг на IMDB:7.3/10[/field][/field]

Видео: 720x576, ( PAL 4:3), MPEG2 Video, 25,000 кадр/сек, ~ 8000 Кбит/сек
Аудио #1:Русский, 48,0 КГц, AC3,6 канала(ов), ~ 448 Кбит/сек
Аудио #2: Русский, 48,0 КГц, AC3, 1 канала(ов), ~192 Кбит/сек
Аудио #3: Русский, 48,0 КГц, DTS, 6 канала(ов), ~755 Кбит/сек[/field]

Полное имя: F:\Фильмы DVD\БЛАГОЧЕСТИВАЯ МАРТА DVD-9\VIDEO_TS\VTS_02_1.VOB
Формат: MPEG-PS
Размер файла: 1024 Мбайт
Продолжительность: 20 м.
Общий поток: 6872 Кбит/сек
Видео
Идентификатор: 224 (0xE0)
Формат: MPEG Video
Версия формата: Version 2
Профиль формата: Main@Main
Параметр BVOP формата: Да
Параметр матрицы формата: По умолчанию
Продолжительность: 20 м.
Вид битрейта: Переменный
Битрейт: 5341 Кбит/сек
Номинальный битрейт: 8000 Кбит/сек
Ширина: 720 пикс.
Высота: 576 пикс.
Соотношение сторон: 4:3
Частота кадров: 25,000 кадр/сек
Стандарт вещания: PAL
Цветовое пространство: YUV
Подвыборка цветности: 4:2:0
Битовая глубина: 8 бит
Тип развёртки: Прогрессивная
Метод сжатия: С потерями
Бит/(Пиксели*Кадры): 0.515
Размер потока: 796 Мбайт (78%)
Аудио #1
Идентификатор: 128 (0x80)
Формат: AC-3
Формат/Информация: Audio Coding 3
Расширение режима: CM (complete main)
Продолжительность: 20 м.
Вид битрейта: Постоянный
Битрейт: 448 Кбит/сек
Канал(ы): 6 канала(ов)
Расположение каналов: Front: L C R, Side: L R, LFE
Частота: 48,0 КГц
Битовая глубина: 16 бит
Метод сжатия: С потерями
Задержка видео: 395 мс.
Размер потока: 66,7 Мбайт (7%)
Аудио #2
Идентификатор: 129 (0x81)
Формат: AC-3
Формат/Информация: Audio Coding 3
Расширение режима: CM (complete main)
Продолжительность: 20 м.
Вид битрейта: Постоянный
Битрейт: 192 Кбит/сек
Канал(ы): 1 канал
Расположение каналов: Front: C
Частота: 48,0 КГц
Битовая глубина: 16 бит
Метод сжатия: С потерями
Задержка видео: 396 мс.
Размер потока: 28,6 Мбайт (3%)
Аудио #3
Идентификатор: 138 (0x8A)
Формат: DTS
Формат/Информация: Digital Theater Systems
Продолжительность: 20 м.
Вид битрейта: Постоянный
Битрейт: 755 Кбит/сек
Канал(ы): 6 канала(ов)
Расположение каналов: Front: L C R, Side: L R, LFE
Частота: 48,0 КГц
Битовая глубина: 24 бит
Метод сжатия: С потерями
Задержка видео: 398 мс.
Размер потока: 112 Мбайт (11%)
Меню
































Поделиться:




реклама партнёра


Вернуться к началу
 Профиль Отправить личное сообщение  
 
   Похожие торренты   Автор   Торрент   Размер 
В этой теме нет новых непрочитанных сообщений. С 8 марта, мужчины! (Мелодрама, комедия, 2014) DVDRip-AVC от ExKinoRay | Лицензия

marya111

39 | 4

1.46 ГБ

В этой теме нет новых непрочитанных сообщений. Овод (1-3 серии из 3) [драма, исторический, экранизация, 1980] DVDRip-AVC

salma3

13 | 16

3.75 ГБ

В этой теме нет новых непрочитанных сообщений. Грейс и Фрэнки / Grace and Frankie [01х01-13 из 13] (Марта Кауффман, Говард Джей Моррис) [2015, Комедия, драма, WEBRip | ViruseProject]

Nickolas3435

6 | 4

4.5 ГБ

В этой теме нет новых непрочитанных сообщений. Это не я, это - он! / C'est pas moi, c'est lui [комедия, 1980] BDRip 720p, Mvo

salma3

48 | 15

4.07 ГБ

В этой теме нет новых непрочитанных сообщений. Аэроплан / Airplane! [комедия, 1980] BDRip 720p, Mvo+Avo+Sub

salma3

94 | 13

7.57 ГБ

В этой теме нет новых непрочитанных сообщений. Подержанные автомобили / Used Cars [комедия. 1980] BDRip, Mvo

salma3

49 | 8

1.45 ГБ

В этой теме нет новых непрочитанных сообщений. Игра в классики / Hopscotch [комедия, приключения, 1980] HDRip-AVC, Avo

salma3

12 | 0

1.45 ГБ


Начать новую тему Ответить на тему  [ 1 сообщение ] 




Для Мосгорсуда, Роскомнадзора и рекламодателей:: mosgorsud-torrent[собачка]yandex.ru