COVID-19 - Последняя информация о коронавирусе на сайте Минздрава




Торрент файл
скачать торрент магнет ссылка Добавлен: 05 янв 2012, 19:55
Размер: 4.5 ГБ
Сидеров: 2
Личеров: 4
Автор

СообщениеДобавлено: 05 янв 2012, 19:55 

Не в сети
Супермодератор
Аватара пользователя
Дата регистрации:
14 июн 2010, 21:00
Возраст: 32
Спасибо: 1345 / 1
Сообщения: 5610
Откуда: НиНО
Дьявольская кукла / Прелестная Долли / Dolly Dearest
Страна: США
Студия: Full moon
Жанр: Ужасы, мистика
Год выпуска: 1991
Продолжительность: 01:33:31
Перевод: Авторский (одноголосый закадровый) Доп.инфо о переводе Юрий Живов
Перевод (2): Авторский (одноголосый закадровый) Доп.инфо о переводе2 Карцев
Cубтитры: нет
Оригинальная аудиодорожка: английский
Режиссер: Мария Лиз / Maria Lease
В ролях: Денис Кросби, Сэм Боттомс, Рип Торн, Кендес Хатсон, Люпе Онтиверос, Энрике Ренальдо, Альма Мартинез, Уилл Готэй, Рене Виктор
Описание: Во время проведения раскопок в Мексике учёный открывает древнюю усыпальницу “ребёнка Дьявола”, которую оставило проживавшее здесь много веков назад племя Санция. Злой дух тотчас выбрался из заточения и вселился в кукол с соседней фабрики, которая намедни досталась во владение американскому бизнесмену Элиоту Риду. Элиот прилетает в Мексику вместе со своей семьёй и первым делом дарит своей дочери куклу из первой продажной партии. Одну из тех, что оказались под влиянием злого духа. С этого момента девочка начинает себя странно вести, разговаривать с Долли (так называется кукла), произносить фразы на забытом всеми языке и делать всякие неприятные вещи. Вслед за этим отправляются к праотцам окружающие девчоночку люди. И только тогда отец выясняет, с чем он имеет дело, что теперь ему необходимо защитить собственную семью от целой своры кукол-убийц и конкретно дочурку от проникновения в неё демона…
Ужастик на любимую многими тему. Режиссёрша картины Мария Лиз до этого никогда не руководила съёмками и остаётся только догадываться, каким образом она заполучила это место. У меня нет уверенности, что она сделала это посредством того, чем это делают все женщины, поскольку её лучшие годы уже были за плечами. Она начинала деятельность в кино в качестве актрисы фильмов эротического плана. И ряд из них относился к горячо любимому нами жанру. Так что есть все основания считать, что Мария Лиз любит хорроры. Проблема лишь в том, что её умение оставляет желать лучшего, хотя и не скажешь, что она непрофессионал (до этого работала ассистентом и монтажёром). Весь фильм состоит из небольших задорных сценок и длительных отступлений, где персонажи не находят ничего лучшего, как говорить о всякой хрени. В целом, Долли очень смахивает на более поздний Месть Пиноккио, но при этом не имеет даже намёка на эротику (видимо, Лиз оставила всю свою распутность в прошлом). Убийственных сцен немного, но они всё же есть. Люди страдают от ножичка, электроприбора, брошенного в воду, швейного станка и прочих мелочей. Бегают куколки классно. Уж в этом претензий к создателям у меня нет. В остальном же, не катит. Скучновато..

РЕЛИЗ ГРУППЫ
Доп. информация: Русские звуковые дорожки взяты с этих раздач http://rutracker.org/forum/viewtopic.php?t=3037192 и http://rutracker.org/forum/viewtopic.php?t=3389056 авторам огромное спасибо.
При пересборе двд были использованы программы: VirtualDubMod 1.5.10.2, Sony Vegas, PgcDemux_1205_exe, muxman_1_1_1, VobBlanker_2130_exe
За оринальный двд большое спасибо *Jonathan*
За синхронизацию дороги спасибо Diablo
Скрин завершения прэкта
Настройки кодирования
Сэмпл: http://narod.ru/disk/15219179001/VTS_01_1.VOB.html
Тип релиза: DVD9 (Custom)
Контейнер: DVD-Video
Видео: NTSC 4:3 (704x480) VBR
Аудио: Russian (Dolby AC3, 192 Kbps, 2 ch)
Аудио 2: Russian (Dolby AC3, 192 Kbps, 2 ch)
Аудио 3: English (Dolby AC3, 192 Kbps, 2 ch)
DVDInfo
Title:
Size: 4.50 Gb ( 4 717 412 KBytes ) - DVD-9
Enabled regions: 1, 2, 3, 4, 5, 6, 7, 8
VTS_01 :
Play Length: 01:33:31
Video: NTSC 4:3 (704x480) VBR
Audio:
Russian (Dolby AC3, 2 ch)
Russian (Dolby AC3, 2 ch)
English (Dolby AC3, 2 ch)
VTS_02 :
Play Length: 00:00:20
Video: NTSC 4:3 (720x480) VBR
Audio:
English (Dolby AC3, 2 ch)
VTS_03 :
Play Length: 00:00:10+00:00:11+00:01:23
Video: NTSC 4:3 (720x480) VBR
Audio:
English (Dolby AC3, 2 ch)
Menu Video:
NTSC 4:3 (704x480) VBR
Menu English Language Unit :
Root Menu
Chapter (PTT) Menu
MediaInfo
General
Complete name : E:\DVD\Dolly Dearest\VIDEO_TS\VTS_01_1.VOB
Format : MPEG-PS
File size : 1 024 MiB
Duration : 21mn 2s
Overall bit rate : 6 803 Kbps
Video
ID : 224 (0xE0)
Format : MPEG Video
Format version : Version 2
Format profile : Main@Main
Format settings, BVOP : Yes
Format settings, Matrix : Default
Duration : 21mn 2s
Bit rate mode : Variable
Bit rate : 6 092 Kbps
Nominal bit rate : 9 802 Kbps
Width : 720 pixels
Height : 480 pixels
Display aspect ratio : 4:3
Frame rate : 29.970 fps
Standard : NTSC
Color space : YUV
Chroma subsampling : 4:2:0
Bit depth : 8 bits
Scan type : Interlaced
Scan order : Top Field First
Bits/(Pixel*Frame) : 0.588
Stream size : 917 MiB (90%)
Audio #1
ID : 128 (0x80)
Format : AC-3
Format/Info : Audio Coding 3
Mode extension : CM (complete main)
Duration : 21mn 2s
Bit rate mode : Constant
Bit rate : 192 Kbps
Channel(s) : 2 channels
Channel positions : Front: L R
Sampling rate : 48.0 KHz
Bit depth : 16 bits
Stream size : 28.9 MiB (3%)
Audio #2
ID : 129 (0x81)
Format : AC-3
Format/Info : Audio Coding 3
Mode extension : CM (complete main)
Duration : 21mn 2s
Bit rate mode : Constant
Bit rate : 192 Kbps
Channel(s) : 2 channels
Channel positions : Front: L R
Sampling rate : 48.0 KHz
Bit depth : 16 bits
Stream size : 28.9 MiB (3%)
Audio #3
ID : 130 (0x82)
Format : AC-3
Format/Info : Audio Coding 3
Mode extension : CM (complete main)
Duration : 21mn 2s
Bit rate mode : Constant
Bit rate : 192 Kbps
Channel(s) : 2 channels
Channel positions : Front: L R
Sampling rate : 48.0 KHz
Bit depth : 16 bits
Stream size : 28.9 MiB (3%)
Text
ID : 224 (0xE0)-DVD-2
Format : EIA-608
Muxing mode : DVD-Video
Muxing mode, more info : Muxed in Video #1
Stream size : 0.00 Byte (0%)
Menu
Ещё постеры
Скриншоты меню
Скриншоты



Скачать книги и аудио книги через торрент


Вернуться к началу
 Профиль Отправить личное сообщение  
 
   Похожие торренты   Автор   Торрент   Размер 
В этой теме нет новых непрочитанных сообщений. Дьявольская кошка / Devil Cat / Mao bian [боевик, триллер, ужасы, 1991] VHSRip, Avo

salma3

0 | 0

1.37 ГБ

В этой теме нет новых непрочитанных сообщений. Секта / The Sect / La Setta [ужасы, мистика, 1991] BDRemux 1080p, Avo

salma3

0 | 0

27.95 ГБ

В этой теме нет новых непрочитанных сообщений. Секта / The Sect / La Setta [ужасы, мистика, 1991] Blu-ray 1080р, Avo

salma3

0 | 0

37.91 ГБ

В этой теме нет новых непрочитанных сообщений. Вопль / L'urlo [комедия, сатира, 1970] DVD9, Avo | [Custom]

NTL

0 | 0

5.58 ГБ

В этой теме нет новых непрочитанных сообщений. Оно / It [ужасы, драма, 2017] BDRip, Avo [Живов]

salma3

15 | 5

2.07 ГБ

В этой теме нет новых непрочитанных сообщений. Чужой: Завет / Alien: Covenant [ужасы, фантастика, триллер, 2017] BDRip, Avo [Живов]

salma3

157 | 41

1.46 ГБ

В этой теме нет новых непрочитанных сообщений. Другой мир: Войны крови / Underworld: Blood Wars [ужасы, фэнтези, боевик, 2016] BDRip, Avo [Живов]

salma3

23 | 7

1.43 ГБ


Начать новую тему Ответить на тему  [ 1 сообщение ] 




Для Мосгорсуда, Роскомнадзора и рекламодателей:: rstracker[собака]yandex.ru
cron