Торрент файл
скачать торрент магнет ссылка Добавлен: 10 дек 2011, 00:10
Размер: 7.34 ГБ
Сидеров: 8
Личеров: 7
Автор

СообщениеДобавлено: 10 дек 2011, 00:10 

Не в сети
Супермодератор
Аватара пользователя
Дата регистрации:
11 апр 2010, 18:10
Спасибо: 5802 / 7
Сообщения: 56779
Ванильное небо / Vanilla Sky



Перевод: Профессиональный (полное дублирование)
Субтитры: английские, эстонсике, латышские, литовские, русские, украинские
Формат: DVD9, DVD Video, MPEG2, AC3
Страна: США, Испания
Режиссер: Кэмерон Кроу
Жанр: фантастика, триллер, мелодрама, детектив
Продолжительность: 02:10:25
Год выпуска: 2001

В ролях: Том Круз, Пенелопа Крус, Кэмерон Диаз, Курт Рассел, Джейсон Ли, Ноа Тейлор, Тимоти Сполл, Тильда Суинтон, Майкл Шеннон,
Дилэйна Митчел


Описание: У богатого плэйбоя Дэвида было все: деньги, свой собственный издательский дом, дорогая машина и квартира в респектабельном районе Нью-Йорка, друг-писатель и подружка Джулианна, даже враги, в лице семи управляющих его компанией, тоже были. Так он и жил без оглядки, пока в один прекрасный момент не встретил Софию.

Его жизнь круто изменилась вскоре после этой встречи, Дэвид попал в автокатастрофу и очнулся после комы инвалидом с изуродованным лицом, которое приходится прикрывать «эстетическим протезом», а на самом деле простой маской. А дальше его новая жизнь обернулась кошмарным сном, от которого нельзя проснуться.


Рейтинг КиноПоиск.RU: 7.614
Рейтинг MPAA: R
Рейтинг на IMDB: 6.9

Видео: 720x576 (PAL 16:9), 25,000 fps, MPEG-2 Video ~ 9800 kbps avg
Аудио #1: Английский: 48 kHz, AC3 Dolby Digital, 6 ch, ~ 448kbps avg [Оригинал]
Аудио #2: Русский: 48 kHz, AC3 Dolby Digital, 6 ch, ~ 448kbps avg [Профессиональный (полное дублирование)]
Аудио #3: Английский: 48 kHz, AC3 Dolby Digital, 2 ch, ~ 192kbps avg [Комментарии режиссёра]

Доп.информация: [Лицензионное издание «ВС трейд»]
Meню озвученное, статичное, на русском языке, с навигацией по эпизодам. Все кнопки функциональны.

Слоган: «Забудь все, что ты знал о жизни и просто раскрой глаза...»


Общее
Полное имя: D:\DVD9\Ванильное небо\VIDEO_TS\VTS_02_3.VOB
Формат: MPEG-PS
Размер файла: 1024 Мбайт
Продолжительность: 25 м.
Режим общего битрейта: Переменный
Общий поток: 5666 Кбит/сек

Видео
Идентификатор: 224 (0xE0)
Формат: MPEG Video
Версия формата: Version 2
Профиль формата: Main@Main
Параметр BVOP формата: Да
Параметр матрицы формата: Выборочная
Продолжительность: 25 м.
Вид битрейта: Переменный
Битрейт: 4465 Кбит/сек
Максимальный битрейт: 9800 Кбит/сек
Ширина: 720 пикселей
Высота: 576 пикселей
Соотношение сторон: 16:9
Частота кадров: 25,000 кадров/сек
Стандарт вещания: PAL
Цветовое пространство: YUV
Субдискретизация насыщенности: 4:2:0
Битовая глубина: 8 бит
Тип развёртки: Прогрессивная
Порядок развёртки: Верхнее поле первое
Метод сжатия: С потерями
Бит/(Пиксели*Кадры): 0.431
Размер потока: 807 Мбайт (79%)

Аудио #1
Идентификатор: 189 (0xBD)-128 (0x80)
Формат: AC-3
Формат/Информация: Audio Coding 3
Расширение режима: CM (complete main)
Режим смешивания: DVD-Video
Продолжительность: 25 м.
Вид битрейта: Постоянный
Битрейт: 448 Кбит/сек
Каналы: 6 каналов
Расположение каналов: Front: L C R, Side: L R, LFE
Частота: 48,0 КГц
Битовая глубина: 16 бит
Метод сжатия: С потерями
Задержка видео: -952 мс.
Размер потока: 81,0 Мбайт (8%)

Аудио #2
Идентификатор: 189 (0xBD)-129 (0x81)
Формат: AC-3
Формат/Информация: Audio Coding 3
Расширение режима: CM (complete main)
Режим смешивания: DVD-Video
Продолжительность: 25 м.
Вид битрейта: Постоянный
Битрейт: 448 Кбит/сек
Каналы: 6 каналов
Расположение каналов: Front: L C R, Side: L R, LFE
Частота: 48,0 КГц
Битовая глубина: 16 бит
Метод сжатия: С потерями
Задержка видео: -952 мс.
Размер потока: 81,0 Мбайт (8%)

Аудио #3
Идентификатор: 189 (0xBD)-130 (0x82)
Формат: AC-3
Формат/Информация: Audio Coding 3
Профиль формата: Dolby Digital
Расширение режима: CM (complete main)
Режим смешивания: DVD-Video
Продолжительность: 25 м.
Вид битрейта: Постоянный
Битрейт: 192 Кбит/сек
Каналы: 2 канала
Расположение каналов: Front: L R
Частота: 48,0 КГц
Битовая глубина: 16 бит
Метод сжатия: С потерями
Задержка видео: -952 мс.
Размер потока: 34,7 Мбайт (3%)

Текст #1
Идентификатор: 189 (0xBD)-32 (0x20)
Формат: RLE
Формат/Информация: Run-length encoding
Режим смешивания: DVD-Video
Продолжительность: 25 м.
Задержка видео: 520 мс.

Текст #2
Идентификатор: 189 (0xBD)-33 (0x21)
Формат: RLE
Формат/Информация: Run-length encoding
Режим смешивания: DVD-Video
Продолжительность: 25 м.
Задержка видео: 520 мс.

Текст #3
Идентификатор: 189 (0xBD)-34 (0x22)
Формат: RLE
Формат/Информация: Run-length encoding
Режим смешивания: DVD-Video
Продолжительность: 25 м.
Задержка видео: 680 мс.

Текст #4
Идентификатор: 189 (0xBD)-35 (0x23)
Формат: RLE
Формат/Информация: Run-length encoding
Режим смешивания: DVD-Video
Продолжительность: 25 м.
Задержка видео: 680 мс.

Текст #5
Идентификатор: 189 (0xBD)-36 (0x24)
Формат: RLE
Формат/Информация: Run-length encoding
Режим смешивания: DVD-Video
Продолжительность: 25 м.
Задержка видео: 680 мс.

Текст #6
Идентификатор: 189 (0xBD)-37 (0x25)
Формат: RLE
Формат/Информация: Run-length encoding
Режим смешивания: DVD-Video
Продолжительность: 25 м.
Задержка видео: 680 мс.





























Поделиться:




реклама партнёра


Вернуться к началу
 Профиль Отправить личное сообщение  
 
   Похожие торренты   Автор   Торрент   Размер 
В этой теме нет новых непрочитанных сообщений. Алоха / Aloha (Кэмерон Кроу) [Драма, мелодрама, комедия, 2015] Blu-Ray Remux 1080p, avo

Dracon

22 | 4

20.2 ГБ

В этой теме нет новых непрочитанных сообщений. Алоха / Aloha (Кэмерон Кроу) [Драма, мелодрама, комедия, 2015] HDRip, Dub [iTunes]

Dracon

201 | 14

1.45 ГБ

В этой теме нет новых непрочитанных сообщений. Алоха / Aloha (Кэмерон Кроу) [Драма, мелодрама, комедия, 2015] HDRip, Dub [iTunes]

Dracon

41 | 2

2.05 ГБ

В этой теме нет новых непрочитанных сообщений. Алоха / Aloha (Кэмерон Кроу) [Драма, мелодрама, комедия, 2015] BDRemux, Dub+Sub [iTunes]

Dracon

118 | 19

20.24 ГБ

В этой теме нет новых непрочитанных сообщений. Алоха / Aloha (Кэмерон Кроу) [Драма, мелодрама, комедия, 2015] BDRip-AVC, Dub+Sub [iTunes]

Dracon

1911 | 120

2.84 ГБ

В этой теме нет новых непрочитанных сообщений. Алоха / Aloha (Кэмерон Кроу) [Драма, мелодрама, комедия, 2015] BDRip 1080p, Dub [iTunes]

Dracon

29 | 5

7.29 ГБ

В этой теме нет новых непрочитанных сообщений. Алоха / Aloha (Кэмерон Кроу) [Драма, мелодрама, комедия, 2015] BDRip 720p, Dub [iTunes]+avo

Dracon

30 | 4

5.88 ГБ


Начать новую тему Ответить на тему  [ 1 сообщение ] 




Для Мосгорсуда, Роскомнадзора и рекламодателей:: mosgorsud-torrent[собачка]yandex.ru