Торрент файл
скачать торрент магнет ссылка Добавлен: 10 дек 2011, 00:08
Размер: 7.97 ГБ
Сидеров: 0
Личеров: 12
Автор

СообщениеДобавлено: 10 дек 2011, 00:08 

Не в сети
Супермодератор
Аватара пользователя
Дата регистрации:
11 апр 2010, 18:10
Спасибо: 5801 / 7
Сообщения: 56779
Картуш / Cartouche


Перевод: Профессиональный (полное дублирование)
Cубтитры: Русские
Формат: DVD9, DVD Video, MPEG2, AC3
Страна: Франция, Италия
Режиссер: Филипп де Брока
Жанр: Боевик, драма, комедия, приключения
Продолжительность: 01:51:05
Год выпуска: 1961

В ролях: Жан-Поль Бельмондо, Клаудия Кардинале, Джесс Хан, Марсель Далио, Жан Рошфор, Филипп Лемэр, Ноэль Роквер, Одиль Версуа, Жак Шарон, Люсьен Рэмбур
Роли дублировали: Николай Александрович, Ольга Григорьева, Степан Бубнов, Владимир Кенигсон, Артем Карапетян

Описание: Завоевав любовь прекрасной цыганки Венеры парижский разбойник 18-го века Доминик взял себе кличку «Картуш» и стал настоящим французским Робин Гудом. Одинаково владея шпагой и языком, Картуш во главе организованной им банды «весельчаков» потрошит кошельки аристократов и раздает добычу беднякам, каждый раз ловко оставляя в дураках своего заклятого врага — начальника полиции Феруссака…

Рейтинг на КиноПоиск:7.352
Рейтинг на IMDB:6.8/10

Видео: 720x576, (PAL 16:9), MPEG2 Video, 25,000 кадр/сек, ~ 8900 Кбит/сек
Аудио #1:Русский, 48,0 КГц, AC3, 2 канала(ов), ~192 Кбит/сек [Профессиональный (полное дублирование)] "Мосфильм"
Аудио #2:Русский, 48,0 КГц, AC3, 2 канала(ов), ~192 Кбит/сек [Профессиональный (многоголосый закадровый)] Екатеринбург Арт
Аудио #3:Французский, 48,0 КГц, AC3, 2 канала(ов), ~192 Кбит/сек [Оригинал]

Доп. информация: В лицензии от Twister произведена замена русской дорожки на закадровый от ЕА + добавлен советский дубляж. Диск собран с помощью Sony Vegas - 9, IfoEdit и VobBlanker.
Спасибо релизеру slavikevro.


Полное имя: D:\ЖАН ПОЛЬ БЕЛЬМОНДО\Картуш DVD-9\VIDEO_TS\VTS_06_1.VOB
Формат: MPEG-PS
Размер файла: 1024 Мбайт
Продолжительность: 21 м.
Общий поток: 6752 Кбит/сек
Видео
Идентификатор: 224 (0xE0)
Формат: MPEG Video
Версия формата: Version 2
Профиль формата: Main@Main
Параметр BVOP формата: Да
Параметр матрицы формата: По умолчанию
Параметры GOP формата: M=3, N=12
Продолжительность: 21 м.
Вид битрейта: Переменный
Битрейт: 6041 Кбит/сек
Номинальный битрейт: 8900 Кбит/сек
Ширина: 720 пикс.
Высота: 576 пикс.
Соотношение сторон: 16:9
Частота кадров: 25,000 кадр/сек
Стандарт вещания: PAL
Цветовое пространство: YUV
Подвыборка цветности: 4:2:0
Битовая глубина: 8 бит
Тип развёртки: Чересстрочная
Порядок развёртки: Верхнее поле первое
Метод сжатия: С потерями
Бит/(Пиксели*Кадры): 0.583
Размер потока: 916 Мбайт (89%)
Аудио #1
Идентификатор: 128 (0x80)
Формат: AC-3
Формат/Информация: Audio Coding 3
Расширение режима: CM (complete main)
Продолжительность: 21 м.
Вид битрейта: Постоянный
Битрейт: 192 Кбит/сек
Канал(ы): 2 канала(ов)
Расположение каналов: Front: L R
Частота: 48,0 КГц
Битовая глубина: 16 бит
Метод сжатия: С потерями
Размер потока: 29,1 Мбайт (3%)
Аудио #2
Идентификатор: 129 (0x81)
Формат: AC-3
Формат/Информация: Audio Coding 3
Расширение режима: CM (complete main)
Продолжительность: 21 м.
Вид битрейта: Постоянный
Битрейт: 192 Кбит/сек
Канал(ы): 2 канала(ов)
Расположение каналов: Front: L R
Частота: 48,0 КГц
Битовая глубина: 16 бит
Метод сжатия: С потерями
Размер потока: 29,1 Мбайт (3%)
Аудио #3
Идентификатор: 130 (0x82)
Формат: AC-3
Формат/Информация: Audio Coding 3
Расширение режима: CM (complete main)
Продолжительность: 21 м.
Вид битрейта: Постоянный
Битрейт: 192 Кбит/сек
Канал(ы): 2 канала(ов)
Расположение каналов: Front: L R
Частота: 48,0 КГц
Битовая глубина: 16 бит
Метод сжатия: С потерями
Размер потока: 29,1 Мбайт (3%)
Меню





























Поделиться:




реклама партнёра


Вернуться к началу
 Профиль Отправить личное сообщение  
 
   Похожие торренты   Автор   Торрент   Размер 
В этой теме нет новых непрочитанных сообщений. Агент Коди Бэнкс / Agent Cody Banks [Комедия, боевик, приключения, фантастика, 2003] DVD9, Dub+Dvo+Sub

salma3

5 | 6

7.86 ГБ

В этой теме нет новых непрочитанных сообщений. Неудержимые 3 / The Expendables 3 [Боевик, приключения, 2014] DVD9, Dub [Лицензия]

Dracon

126 | 27

6.2 ГБ

В этой теме нет новых непрочитанных сообщений. Стражи Галактики / Guardians of the Galaxy [Фантастика, Боевик, Приключения, 2014] DVD9, Dub+Sub

salma3

91 | 6

7.27 ГБ

В этой теме нет новых непрочитанных сообщений. Стальной рассвет / Steel Dawn [Фантастика, боевик, приключения, 1987] DVD9, Dvo

salma3

13 | 5

6.84 ГБ

В этой теме нет новых непрочитанных сообщений. Скалолаз / Cliffhanger [боевик, триллер, приключения, 1993] DVD9, Dvo+Sub [Режиссерская версия]

salma3

13 | 7

7.06 ГБ

В этой теме нет новых непрочитанных сообщений. Дивергент / Divergent [Фантастика, боевик, триллер, приключения, 2014] DVD9, Dub [Лицензия]

salma3

75 | 9

7.16 ГБ

В этой теме нет новых непрочитанных сообщений. Тотальная слежка / La totale! [комедия, приключения, 1991] DVD9, Mvo

salma3

8 | 2

6.07 ГБ


Начать новую тему Ответить на тему  [ 1 сообщение ] 




Для Мосгорсуда, Роскомнадзора и рекламодателей:: mosgorsud-torrent[собачка]yandex.ru