Торрент файл
скачать торрент магнет ссылка Добавлен: 10 дек 2011, 00:07
Размер: 5.36 ГБ
Сидеров: 0
Личеров: 6
Автор

СообщениеДобавлено: 10 дек 2011, 00:07 

Не в сети
Супермодератор
Аватара пользователя
Дата регистрации:
11 апр 2010, 18:10
Спасибо: 5995 / 7
Сообщения: 56685
Как сделать из жены чудовище / The Sex Monster


Перевод: Профессиональный (многоголосый, закадровый)
Cубтитры: Русские
Формат: DVD9, DVD Video, MPEG2, AC3
Страна: США
Режиссер: Майк Байндер
Жанр: Комедия
Продолжительность: 01:33:23
Год выпуска: 1999

В ролях: Мэриэл Хемингуэй, Майк Байндер, Рене Хамфри, Тейлор Николс, Мисси Крайдер, Кристофер Лоуфорд, Джоэнна Хеймболд, Кевин Поллак, Стивен Болдуин, Анита Бароне

Описание: У Марти Барнса все было хорошо. Только одно не давало ему покоя: однообразие в сексуальной жизни. И он осторожно излагает жене свою идею относительно секса втроем, пытаясь убедить супругу в том, что его выдумка обязательно встряхнет их обоих и внесет в их жизнь некую изюминку…

Рейтинг на КиноПоиск:5.338
Рейтинг MPAA:R
Рейтинг на IMDB:5.2/10

Видео: 720x576, (PAL 16:9), MPEG2 Video, 25,000 кадр/сек, ~ 8000 Кбит/сек
Аудио #1:Русский, 48,0 КГц, AC3, 6 канала(ов), ~448 Кбит/сек [Профессиональный (многоголосый закадровый)]
Аудио #2:Английский, 48,0 КГц, AC3, 6 канала(ов), ~448 Кбит/сек [Оригинал]

Полное имя: I:\Фильмы DVD\Ихние\Как сделать из жены чудовище DVD-9\VIDEO_TS\VTS_03_1.VOB
Формат: MPEG-PS
Размер файла: 1024 Мбайт
Продолжительность: 19 м.
Общий поток: 7428 Кбит/сек
Видео
Идентификатор: 224 (0xE0)
Формат: MPEG Video
Версия формата: Version 2
Профиль формата: Main@Main
Параметр BVOP формата: Да
Параметр матрицы формата: По умолчанию
Параметры GOP формата: M=3, N=15
Продолжительность: 19 м.
Вид битрейта: Переменный
Битрейт: 6384 Кбит/сек
Номинальный битрейт: 8000 Кбит/сек
Ширина: 720 пикс.
Высота: 576 пикс.
Соотношение сторон: 16:9
Частота кадров: 25,000 кадр/сек
Стандарт вещания: PAL
Цветовое пространство: YUV
Подвыборка цветности: 4:2:0
Битовая глубина: 8 бит
Тип развёртки: Чересстрочная
Порядок развёртки: Верхнее поле первое
Метод сжатия: С потерями
Бит/(Пиксели*Кадры): 0.616
Размер потока: 880 Мбайт (86%)
Аудио #1
Идентификатор: 128 (0x80)
Формат: AC-3
Формат/Информация: Audio Coding 3
Расширение режима: CM (complete main)
Продолжительность: 19 м.
Вид битрейта: Постоянный
Битрейт: 448 Кбит/сек
Канал(ы): 6 канала(ов)
Расположение каналов: Front: L C R, Side: L R, LFE
Частота: 48,0 КГц
Битовая глубина: 16 бит
Метод сжатия: С потерями
Задержка видео: -80 мс.
Размер потока: 61,7 Мбайт (6%)
Аудио #2
Идентификатор: 129 (0x81)
Формат: AC-3
Формат/Информация: Audio Coding 3
Расширение режима: CM (complete main)
Продолжительность: 19 м.
Вид битрейта: Постоянный
Битрейт: 448 Кбит/сек
Канал(ы): 6 канала(ов)
Расположение каналов: Front: L C R, Side: L R, LFE
Частота: 48,0 КГц
Битовая глубина: 16 бит
Метод сжатия: С потерями
Задержка видео: -80 мс.
Размер потока: 61,7 Мбайт (6%)
Текст
Идентификатор: 32 (0x20)
Формат: RLE
Формат/Информация: Run-length encoding
Задержка видео: 400 мс.
Меню





























Поделиться:



Вернуться к началу
 Профиль Отправить личное сообщение  
 
   Похожие торренты   Автор   Торрент   Размер 
В этой теме нет новых непрочитанных сообщений. Отель Парадизо / Guest House Paradiso [черная комедия, 1999] DVD9, Mvo

salma3

5 | 1

6.02 ГБ

В этой теме нет новых непрочитанных сообщений. Прерванная жизнь / Girl, Interrupted [драма, биография, 1999] DVD9, Mvo

salma3

11 | 11

5.86 ГБ

В этой теме нет новых непрочитанных сообщений. Аромат моря / Sapore di mare [комедия, 1983] DVD9, Avo

salma3

0 | 0

6.46 ГБ

В этой теме нет новых непрочитанных сообщений. Крампус / Krampus [ужасы, фэнтези, комедия, 2015] DVD9, Dub [Лицензия]

salma3

0 | 0

5.79 ГБ

В этой теме нет новых непрочитанных сообщений. Тачки 3 / Cars 3 [мультфильм, комедия, приключения, 2017] DVD9, Dub+Sub [Лицензия]

salma3

0 | 0

6.39 ГБ

В этой теме нет новых непрочитанных сообщений. Закат американской империи / Le Declin de l'empire americain [драма, комедия, 1986] DVD9, Mvo

salma3

14 | 11

5.79 ГБ

В этой теме нет новых непрочитанных сообщений. В поисках Дори / Finding Dory (Мультфильм, комедия, приключения, семейный, 2016) DVD9 | Custom

marya111

29 | 18

6.39 ГБ


Начать новую тему Ответить на тему  [ 1 сообщение ] 




Для Мосгорсуда, Роскомнадзора и рекламодателей:: mosgorsud-torrent[собачка]yandex.ru
cron