Торрент файл
скачать торрент магнет ссылка Добавлен: 10 дек 2011, 00:06
Размер: 7.45 ГБ
Сидеров: 4
Личеров: 5
Автор

СообщениеДобавлено: 10 дек 2011, 00:06 

Не в сети
Супермодератор
Аватара пользователя
Дата регистрации:
11 апр 2010, 18:10
Спасибо: 5802 / 7
Сообщения: 56779
Рожденный четвертого июля / Born on the Fourth of July



Перевод: Профессиональный (полное дублирование)
Субтитры: Английские, корейские, тайские, китайские,
Формат: DVD9, DVD Video, MPEG2, AC3, DTS
Страна: США
Режиссер: Оливер Стоун
Жанр: драма, военный, биография
Продолжительность: 02:24:00
Год выпуска: 1989

В ролях: Том Круз, Уиллем Дефо, Кайра Седжуик, Брайан Ларкин, Рэймонд Дж. Бэрри, Энн Бобби, Джеми Талисман, Дженна фон Ой, Джош Эванс, Кэролайн Кэва, Сет Аллен, Шон Стоун, Том Беринжер

Описание: Фильм, основанный на реальных фактах, рассказывает историю жизни ветерана по имени Рон Ковик. Наивным школьником он записывается добровольцем в армию и, пройдя через ад вьетнамской войны, возвращается домой парализованным калекой. Этот мужественный человек посвящает свою жизнь борьбе с самым страшным врагом человечества — войной.

Рейтинг КиноПоиск.RU: 7.681
рейтинг MPAA: R
Рейтинг на IMDB: 7.2/10

Видео: 720x480 (NTSC 16:9), 23,976 fps, MPEG-2 Video ~ 8000 kbps avg
Аудио #1: Английский: 48 kHz, AC3 Dolby Digital, 6 ch, ~ 384kbps avg [Оригинал)]
Аудио #2: Русский: 48 kHz, AC3 Dolby Digital, 6 ch, ~ 448kbps avg [Профессиональный (полное дублирование)]
Аудио #3: Русский: 48 kHz, AC3 Dolby Digital, 2 ch, ~ 192 kbps avg [Авторский (одноголосый) (Андрей Гаврилов)]
Аудио #4: Русский: 48 kHz, DTS Dolby Digital, 6 ch, ~ 755 kbps avg [Профессиональный (многоголосый, закадровый)]

Доп.информация:
Meню озвученное, статичное, на английском языке, с навигацией по эпизодам. Все кнопки функциональны.

Британская академия, 1991 год
Номинации (2):
Лучшая мужская роль (Том Круз)
Лучший адаптированный сценарий

Оскар, 1990 год
Победитель (2):
Лучший режиссер (Оливер Стоун)
Лучший монтаж
Номинации (6):
Лучший фильм
Лучшая мужская роль (Том Круз)
Лучший адаптированный сценарий
Лучшая работа оператора
Лучший звук
Лучший оригинальный саундтрек

Золотой глобус, 1990 год
Победитель (4):
Лучший фильм (драма)
Лучшая мужская роль (драма) (Том Круз)
Лучший режиссер (Оливер Стоун)
Лучший сценарий
Номинации (1):
Лучший саундтрек

Берлинский кинофестиваль, 1990 год
Номинации (1):
Золотой Медведь

Общее
Полное имя: D:\Рожденный четвертого июля\VIDEO_TS\VTS_01_6.VOB
Формат: MPEG-PS
Размер файла: 1024 Мбайт
Продолжительность: 20 м.
Режим общего битрейта: Переменный
Общий поток: 7131 Кбит/сек

Видео
Идентификатор: 224 (0xE0)
Формат: MPEG Video
Версия формата: Version 2
Профиль формата: Main@Main
Параметр BVOP формата: Да
Параметр матрицы формата: Выборочная
Параметр GOP формата: M=3, N=12
Продолжительность: 20 м.
Вид битрейта: Переменный
Битрейт: 5210 Кбит/сек
Максимальный битрейт: 8000 Кбит/сек
Ширина: 720 пикселей
Высота: 480 пикселей
Соотношение сторон: 16:9
Частота кадров: 23,976 кадра/сек
Стандарт вещания: NTSC
Цветовое пространство: YUV
Субдискретизация насыщенности: 4:2:0
Битовая глубина: 8 бит
Тип развёртки: Прогрессивная
Порядок развёртки: 2:3 Pulldown
Метод сжатия: С потерями
Бит/(Пиксели*Кадры): 0.629
Размер потока: 748 Мбайт (73%)

Аудио #1
Идентификатор: 189 (0xBD)-128 (0x80)
Формат: AC-3
Формат/Информация: Audio Coding 3
Расширение режима: CM (complete main)
Режим смешивания: DVD-Video
Продолжительность: 20 м.
Вид битрейта: Постоянный
Битрейт: 384 Кбит/сек
Каналы: 6 каналов
Расположение каналов: Front: L C R, Side: L R, LFE
Частота: 48,0 КГц
Битовая глубина: 16 бит
Метод сжатия: С потерями
Задержка видео: -576 мс.
Размер потока: 55,1 Мбайт (5%)

Аудио #2
Идентификатор: 189 (0xBD)-129 (0x81)
Формат: AC-3
Формат/Информация: Audio Coding 3
Расширение режима: CM (complete main)
Режим смешивания: DVD-Video
Продолжительность: 20 м.
Вид битрейта: Постоянный
Битрейт: 448 Кбит/сек
Каналы: 6 каналов
Расположение каналов: Front: L C R, Side: L R, LFE
Частота: 48,0 КГц
Битовая глубина: 16 бит
Метод сжатия: С потерями
Задержка видео: -576 мс.
Размер потока: 64,3 Мбайт (6%)

Аудио #3
Идентификатор: 189 (0xBD)-131 (0x83)
Формат: AC-3
Формат/Информация: Audio Coding 3
Профиль формата: Dolby Digital
Расширение режима: CM (complete main)
Режим смешивания: DVD-Video
Продолжительность: 20 м.
Вид битрейта: Постоянный
Битрейт: 192 Кбит/сек
Каналы: 2 канала
Расположение каналов: Front: L R
Частота: 48,0 КГц
Битовая глубина: 16 бит
Метод сжатия: С потерями
Задержка видео: -544 мс.
Размер потока: 27,6 Мбайт (3%)

Аудио #4
Идентификатор: 189 (0xBD)-138 (0x8A)
Формат: DTS
Формат/Информация: Digital Theater Systems
Режим смешивания: DVD-Video
Продолжительность: 20 м.
Вид битрейта: Постоянный
Битрейт: 755 Кбит/сек
Каналы: 6 каналов
Расположение каналов: Front: L C R, Side: L R, LFE
Частота: 48,0 КГц
Битовая глубина: 24 бит
Метод сжатия: С потерями
Задержка видео: -618 мс.
Размер потока: 108 Мбайт (11%)

Текст #1
Идентификатор: 189 (0xBD)-32 (0x20)
Формат: RLE
Формат/Информация: Run-length encoding
Режим смешивания: DVD-Video
Продолжительность: 20 м.
Задержка видео: 1 с. 551 мс.

Текст #2
Идентификатор: 189 (0xBD)-39 (0x27)
Формат: RLE
Формат/Информация: Run-length encoding
Режим смешивания: DVD-Video
Продолжительность: 20 м.
Задержка видео: 1 с. 818 мс.

Текст #3
Идентификатор: 189 (0xBD)-35 (0x23)
Формат: RLE
Формат/Информация: Run-length encoding
Режим смешивания: DVD-Video

Текст #4
Идентификатор: 189 (0xBD)-36 (0x24)
Формат: RLE
Формат/Информация: Run-length encoding
Режим смешивания: DVD-Video

Текст #5
Идентификатор: 189 (0xBD)-37 (0x25)
Формат: RLE
Формат/Информация: Run-length encoding
Режим смешивания: DVD-Video

Текст #6
Идентификатор: 189 (0xBD)-38 (0x26)
Формат: RLE
Формат/Информация: Run-length encoding
Режим смешивания: DVD-Video






















Поделиться:




реклама партнёра


Вернуться к началу
 Профиль Отправить личное сообщение  
 
   Похожие торренты   Автор   Торрент   Размер 
В этой теме нет новых непрочитанных сообщений. Рожденный четвертого июля / Born on the Fourth of July [драма, военный, биография, 1989] BDRip 1080p, Dub

salma3

35 | 34

20.07 ГБ

В этой теме нет новых непрочитанных сообщений. Рождённый для грусти / Born to Be Blue [драма, биография, музыка, 2015] HDRip, Mvo

salma3

100 | 2

699.67 МБ

В этой теме нет новых непрочитанных сообщений. Рожденный побеждать / Born to Win [драма, комедия, криминал, 1971] SATRip, Dvo

salma3

2 | 3

1.55 ГБ

В этой теме нет новых непрочитанных сообщений. Призвание / The Calling (Джейсон Стоун) [триллер, криминал, детектив, 2014] DVD9, Mvo+Sub [Лицензия]

Dracon

15 | 7

6.89 ГБ

В этой теме нет новых непрочитанных сообщений. Джими Хендрикс / All Is by My Side [Драма, биография, музыка, 2013] DVD9, Mvo+Sub [лицензия]

Dracon

42 | 4

5.75 ГБ

В этой теме нет новых непрочитанных сообщений. Единичка (Кирилл Белевич) [военный, драма, 2015] DVD9 [Лицензия]

Dracon

3 | 1

5.69 ГБ

В этой теме нет новых непрочитанных сообщений. Муха 2 / The Fly II [ужасы, фантастика, 1989] DVD9, Mvo+Sub

salma3

3 | 2

4.66 ГБ


Начать новую тему Ответить на тему  [ 1 сообщение ] 




Для Мосгорсуда, Роскомнадзора и рекламодателей:: mosgorsud-torrent[собачка]yandex.ru