Торрент файл
скачать торрент магнет ссылка Добавлен: 10 дек 2011, 00:06
Размер: 5.02 ГБ
Сидеров: 6
Личеров: 4
Автор

СообщениеДобавлено: 10 дек 2011, 00:06 

Не в сети
Супермодератор
Аватара пользователя
Дата регистрации:
11 апр 2010, 18:10
Спасибо: 5995 / 7
Сообщения: 56685
Любовное настроение / Fa yeung nin wa



Перевод: Профессиональный (многоголосый, закадровый)
Субтитры: Отсутсвуют
Формат: DVD9, DVD Video, MPEG2, AC3
Страна: Франция, Гонконг
Режиссер: Вонг Кар-Вай
Жанр: драма, мелодрама
Продолжительность: 01:33:58
Год выпуска: 2000

В ролях: Мэгги Чун, Тони Люн Чу Вай, Пинг Лам Сиу, Танг Чо «Джо» Чунг, Ребекка Пан, Келли Лаи Чен, Май-Лэй Чан, Чжи-гун Чен, Рой Чунг, Полин Сун

Описание: Герои этого маленького шедевра Су и Чоу снимают в доме соседние комнаты. Их супруги все время в отлучке. Мы никогда не увидим их. Чоу узнает сумочку Су, подаренную ей мужем. У его жены такая же. А Су узнает галстук Чоу, подаренный ему женой. У ее мужа такой же.

Без слов понятно, что их супруги изменяют им друг с другом. Что остается героям фильма? Мстить? А может просто окунуться в сладкую музыку любовного настроения?


Рейтинг КиноПоиск.RU: 8.071
Рейтинги MPAA: PG
Рейтинг на IMDB: 8.1/10

Видео: 720x576 (PAL 16:9), 25,000 fps, MPEG-2 Video ~ 6800 kbps avg
Аудио #1: Русский: 48 kHz, AC3 Dolby Digital, 6 ch, ~ 448kbps avg [Профессиональный (многоголосый, закадровый)]
Аудио #2: Украинский: 48 kHz, AC3 Dolby Digital, 6 ch, ~ 448kbps avg [Профессиональный (многоголосый, закадровый)]

Доп.информация: [Лицензионное издание «Кармен Видео»]
Meню озвученное, статичное, на русском языке, с навигацией по эпизодам. Все кнопки функциональны.

Британская академия, 2001 год
Номинации (1):
Лучший фильм на иностранном языке

Сезар, 2001 год
Победитель (1):
Лучший фильм на иностранном языке

Каннский кинофестиваль, 2000 год
Победитель (2):
Серебряная премия за лучшую мужскую роль (Тони Люн Чу Вай)
Технический гран-при
Номинации (1):
Золотая пальмовая ветвь

Европейская киноакадемия, 2000 год
Победитель (1):
Приз Screen International Award

Общее
Полное имя: D:\Любовное настроение\VIDEO_TS\VTS_03_3.VOB
Формат: MPEG-PS
Размер файла: 1024 Мбайт
Продолжительность: 19 м.
Режим общего битрейта: Переменный
Общий поток: 7418 Кбит/сек

Видео
Идентификатор: 224 (0xE0)
Формат: MPEG Video
Версия формата: Version 2
Профиль формата: Main@Main
Параметр BVOP формата: Да
Параметр матрицы формата: Выборочная
Параметр GOP формата: M=3, N=15
Продолжительность: 19 м.
Вид битрейта: Переменный
Битрейт: 6374 Кбит/сек
Максимальный битрейт: 6800 Кбит/сек
Ширина: 720 пикселей
Высота: 576 пикселей
Соотношение сторон: 16:9
Частота кадров: 25,000 кадров/сек
Стандарт вещания: PAL
Цветовое пространство: YUV
Субдискретизация насыщенности: 4:2:0
Битовая глубина: 8 бит
Тип развёртки: Чересстрочная
Порядок развёртки: Верхнее поле первое
Метод сжатия: С потерями
Бит/(Пиксели*Кадры): 0.615
Размер потока: 880 Мбайт (86%)

Аудио #1
Идентификатор: 189 (0xBD)-128 (0x80)
Формат: AC-3
Формат/Информация: Audio Coding 3
Расширение режима: CM (complete main)
Режим смешивания: DVD-Video
Продолжительность: 19 м.
Вид битрейта: Постоянный
Битрейт: 448 Кбит/сек
Каналы: 6 каналов
Расположение каналов: Front: L C R, Side: L R, LFE
Частота: 48,0 КГц
Битовая глубина: 16 бит
Метод сжатия: С потерями
Задержка видео: -280 мс.
Размер потока: 61,8 Мбайт (6%)

Аудио #2
Идентификатор: 189 (0xBD)-129 (0x81)
Формат: AC-3
Формат/Информация: Audio Coding 3
Расширение режима: CM (complete main)
Режим смешивания: DVD-Video
Продолжительность: 19 м.
Вид битрейта: Постоянный
Битрейт: 448 Кбит/сек
Каналы: 6 каналов
Расположение каналов: Front: L C R, Side: L R, LFE
Частота: 48,0 КГц
Битовая глубина: 16 бит
Метод сжатия: С потерями
Задержка видео: -304 мс.
Размер потока: 61,8 Мбайт (6%)


















Поделиться:



Вернуться к началу
 Профиль Отправить личное сообщение  
 
   Похожие торренты   Автор   Торрент   Размер 
В этой теме нет новых непрочитанных сообщений. Любовное наваждение / Apo erota [драма, мелодрама, комедия, 2014] DVDRip, Mvo [GreenРай Studio]

salma3

6 | 12

1.37 ГБ

В этой теме нет новых непрочитанных сообщений. Влюбленные / Amanti [Мелодрама, драма, 1968] DVD9, Mvo

salma3

0 | 0

4.61 ГБ

В этой теме нет новых непрочитанных сообщений. Пассажиры / Passengers [Фантастика, драма, мелодрама, 2016] DVD9, Dub [Custom]

salma3

59 | 18

6.66 ГБ

В этой теме нет новых непрочитанных сообщений. Крик совы / Le cri du hibou [триллер, драма, мелодрама, 1987] DVD9, Mvo

salma3

0 | 1

4.63 ГБ

В этой теме нет новых непрочитанных сообщений. Человек – швейцарский нож / Swiss Army Man [фэнтези, драма, мелодрама, 2016] DVD9, Dub [Лицензия]

salma3

0 | 0

6.09 ГБ

В этой теме нет новых непрочитанных сообщений. Пятьдесят оттенков свободы / Fifty Shades Freed [Триллер, драма, мелодрама, 2018] DVD9, Dub [Лицензия]

salma3

0 | 0

5.74 ГБ

В этой теме нет новых непрочитанных сообщений. Под настроение / In the Mood [мелодрама, комедия, 1987] DVDRip, Dvo

salma3

15 | 6

1.4 ГБ


Начать новую тему Ответить на тему  [ 1 сообщение ] 




Для Мосгорсуда, Роскомнадзора и рекламодателей:: mosgorsud-torrent[собачка]yandex.ru
cron