Торрент файл
скачать торрент магнет ссылка Добавлен: 10 дек 2011, 00:05
Размер: 5.9 ГБ
Сидеров: 0
Личеров: 4
Автор

СообщениеДобавлено: 10 дек 2011, 00:05 

Не в сети
Супермодератор
Аватара пользователя
Дата регистрации:
11 апр 2010, 18:10
Спасибо: 5798 / 7
Сообщения: 56779
Гатор (Аллигатор) / Gator


Перевод: Профессиональный (двухголосый)
Cубтитры:Английские,Немецкие, Французские, Итальянские, Испанские, Немецкие, Греческие
Формат: DVD9, DVD Video, MPEG2, AC3
Страна: США
Режиссер: Берт Рейнолдс, Джеймс Бест
Жанр: Боевик, драма, криминал
Продолжительность: 01:51:34
Год выпуска: 1976

В ролях: Берт Рейнолдс, Джек Уэстон, Лорен Хаттон, Джерри Рид, Элис Гостли, Даб Тейлор, Майк Дуглас, Бертон Гиллиам,Джон Стэдмен

Описание: После освобождения из тюрьмы «Аллигатор» МакКласки пытается начать новую жизнь вдали от городской суеты. Но федеральные агенты нарушают его покой и пытаются заставить помочь им в операции против коррумпированного политика, друга детства Аллигатора. Поначалу он сопротивляется этому, но постепенно узнавая, что старый друг причастен к вымогательствам, организации проституции и даже убийствам, Аллигатор решает помочь властям.

Рейтинг на КиноПоиск:7.000
Рейтинг MPAA:/PG
Рейтинг на IMDB:5.4/10

Видео: 720x576, ( PAL 16:9), MPEG2 Video, 25,000 кадр/сек, ~ 8200 Кбит/сек
Аудио #1: Английский, 48,0 КГц, AC3, 2 канала(ов), ~192 Кбит/сек [Оригинал]
Аудио #2: Русский, 48,0 КГц, AC3, 2 канала(ов), ~192 Кбит/сек [Профессиональный (двухголосый, закадровый)]
Аудио #3: Французский, 48,0 КГц, AC3, 2 канала(ов), ~192 Кбит/сек
Аудио #4: Итальянский, 48,0 КГц, AC3, 2 канала(ов), ~192 Кбит/сек
Аудио #5: Испанский, 48,0 КГц, AC3, 2 канала(ов), ~192 Кбит/сек
Аудио #6: Польский, 48,0 КГц, AC3, 2 канала(ов), ~192 Кбит/сек

Доп. информация: Сиквел фильма 1973-го года "Белая молния" (White Lightning).


Полное имя: C:\Gator DVD9\VIDEO_TS\VTS_02_1.VOB
Формат: MPEG-PS
Размер файла: 1024 Мбайт
Продолжительность: 18 м.
Общий поток: 7741 Кбит/сек
Видео
Идентификатор: 224 (0xE0)
Формат: MPEG Video
Версия формата: Version 2
Профиль формата: Main@Main
Параметр BVOP формата: Да
Параметр матрицы формата: По умолчанию
Параметры GOP формата: M=3, N=12
Продолжительность: 18 м.
Вид битрейта: Переменный
Битрейт: 6435 Кбит/сек
Номинальный битрейт: 8200 Кбит/сек
Ширина: 720 пикс.
Высота: 576 пикс.
Соотношение сторон: 16:9
Частота кадров: 25,000 кадр/сек
Стандарт вещания: PAL
Цветовое пространство: YUV
Подвыборка цветности: 4:2:0
Битовая глубина: 8 бит
Тип развёртки: Чересстрочная
Порядок развёртки: Верхнее поле первое
Метод сжатия: С потерями
Бит/(Пиксели*Кадры): 0.621
Размер потока: 851 Мбайт (83%)
Аудио #1
Идентификатор: 128 (0x80)
Формат: AC-3
Формат/Информация: Audio Coding 3
Режим: Dual Mono
Расширение режима: CM (complete main)
Продолжительность: 18 м.
Вид битрейта: Постоянный
Битрейт: 192 Кбит/сек
Канал(ы): 2 канала(ов)
Расположение каналов: Front: L R
Частота: 48,0 КГц
Битовая глубина: 16 бит
Метод сжатия: С потерями
Задержка видео: -80 мс.
Размер потока: 25,4 Мбайт (2%)
Аудио #2
Идентификатор: 129 (0x81)
Формат: AC-3
Формат/Информация: Audio Coding 3
Расширение режима: CM (complete main)
Продолжительность: 18 м.
Вид битрейта: Постоянный
Битрейт: 192 Кбит/сек
Канал(ы): 2 канала(ов)
Расположение каналов: Front: L R
Частота: 48,0 КГц
Битовая глубина: 16 бит
Метод сжатия: С потерями
Задержка видео: -80 мс.
Размер потока: 25,4 Мбайт (2%)
Аудио #3
Идентификатор: 130 (0x82)
Формат: AC-3
Формат/Информация: Audio Coding 3
Расширение режима: CM (complete main)
Продолжительность: 18 м.
Вид битрейта: Постоянный
Битрейт: 192 Кбит/сек
Канал(ы): 2 канала(ов)
Расположение каналов: Front: L R
Частота: 48,0 КГц
Битовая глубина: 16 бит
Метод сжатия: С потерями
Задержка видео: -80 мс.
Размер потока: 25,4 Мбайт (2%)
Аудио #4
Идентификатор: 131 (0x83)
Формат: AC-3
Формат/Информация: Audio Coding 3
Расширение режима: CM (complete main)
Продолжительность: 18 м.
Вид битрейта: Постоянный
Битрейт: 192 Кбит/сек
Канал(ы): 2 канала(ов)
Расположение каналов: Front: L R
Частота: 48,0 КГц
Битовая глубина: 16 бит
Метод сжатия: С потерями
Задержка видео: -80 мс.
Размер потока: 25,4 Мбайт (2%)
Аудио #5
Идентификатор: 132 (0x84)
Формат: AC-3
Формат/Информация: Audio Coding 3
Расширение режима: CM (complete main)
Продолжительность: 18 м.
Вид битрейта: Постоянный
Битрейт: 192 Кбит/сек
Канал(ы): 2 канала(ов)
Расположение каналов: Front: L R
Частота: 48,0 КГц
Битовая глубина: 16 бит
Метод сжатия: С потерями
Задержка видео: -80 мс.
Размер потока: 25,4 Мбайт (2%)
Аудио #6
Идентификатор: 133 (0x85)
Формат: AC-3
Формат/Информация: Audio Coding 3
Расширение режима: CM (complete main)
Продолжительность: 18 м.
Вид битрейта: Постоянный
Битрейт: 192 Кбит/сек
Канал(ы): 2 канала(ов)
Расположение каналов: Front: L R
Частота: 48,0 КГц
Битовая глубина: 16 бит
Метод сжатия: С потерями
Задержка видео: -80 мс.
Размер потока: 25,4 Мбайт (2%)
Текст #1
Идентификатор: 32 (0x20)
Формат: RLE
Формат/Информация: Run-length encoding
Текст #2
Идентификатор: 33 (0x21)
Формат: RLE
Формат/Информация: Run-length encoding
Текст #3
Идентификатор: 34 (0x22)
Формат: RLE
Формат/Информация: Run-length encoding
Текст #4
Идентификатор: 35 (0x23)
Формат: RLE
Формат/Информация: Run-length encoding
Текст #5
Идентификатор: 36 (0x24)
Формат: RLE
Формат/Информация: Run-length encoding
Текст #6
Идентификатор: 37 (0x25)
Формат: RLE
Формат/Информация: Run-length encoding
Текст #7
Идентификатор: 38 (0x26)
Формат: RLE
Формат/Информация: Run-length encoding
Меню






























Поделиться:




реклама партнёра


Вернуться к началу
 Профиль Отправить личное сообщение  
 
   Похожие торренты   Автор   Торрент   Размер 
В этой теме нет новых непрочитанных сообщений. Кибер / Blackhat (Майкл Манн) [боевик, триллер, драма, криминал, детектив, 2015] DVD9, Dub+Sub [лицензия]

Dracon

0 | 0

6.83 ГБ

В этой теме нет новых непрочитанных сообщений. Альбино Аллигатор / Albino Alligator (Кевин Спейси / Kevin Spacey) [1996г., триллер, драма, криминал, BDRip-AVC] MVO

Alfredovich

3 | 4

2.18 ГБ

В этой теме нет новых непрочитанных сообщений. Need for Speed: Жажда скорости / Need for Speed [Боевик, триллер, драма, криминал, 2014] DVD9, Dub+Sub [Лицензия]

salma3

73 | 8

7.14 ГБ

В этой теме нет новых непрочитанных сообщений. РобоКоп / RoboCop [фантастика, боевик, криминал, 2014] DVD9, Dub+Sub [лицензия]

salma3

91 | 5

6.28 ГБ

В этой теме нет новых непрочитанных сообщений. Мачо и ботан 2 / 22 Jump Street [боевик, комедия, криминал, 2014] DVD9, Dub+Sub [лицензия]

Dracon

41 | 2

6.5 ГБ

В этой теме нет новых непрочитанных сообщений. Радиоволна / Frequency [триллер, фантастика, драма, криминал, 2000] DVD9, Mvo+Sub

salma3

11 | 2

5.06 ГБ

В этой теме нет новых непрочитанных сообщений. Грязь / Filth [Драма, комедия, криминал, 2013] DVD9, Dub [Лицензия]

Dracon

22 | 2

4.92 ГБ


Начать новую тему Ответить на тему  [ 1 сообщение ] 




Для Мосгорсуда, Роскомнадзора и рекламодателей:: mosgorsud-torrent[собачка]yandex.ru