Торрент файл
скачать торрент магнет ссылка Добавлен: 10 дек 2011, 00:05
Размер: 5.46 ГБ
Сидеров: 0
Личеров: 5
Автор

СообщениеДобавлено: 10 дек 2011, 00:05 

Не в сети
Супермодератор
Аватара пользователя
Дата регистрации:
11 апр 2010, 18:10
Спасибо: 5963 / 7
Сообщения: 56762
Белая молния / White Lightning



Перевод: Профессиональный (двухголосый)
Cубтитры:Английские,Немецкие, Французские, Итальянские, Испанские, Немецкие, Греческие
Формат: DVD9, DVD Video, MPEG2, AC3
Страна: США
Режиссер: Джозеф Сарджент
Жанр: Боевик, драма, криминал
Продолжительность: 01:36:57
Год выпуска: 1973

В ролях: Берт Рейнолдс, Дженнифер Биллингсли, Нед Битти, Бо Хопкинс, Мэтт Кларк, Луиз Лэтэм, Дайан Лэдд, Армстронг, Конлан Картер, Даббс Грир

Описание: Заключенный идет на сделку с властями, чтобы помочь разоблачить преступного шерифа, убившего его брата.

Рейтинг на КиноПоиск:6.750
Рейтинг MPAA:/PG
Рейтинг на IMDB:6.0/10

Видео: 720x576, ( PAL 16:9), MPEG2 Video, 25,000 кадр/сек, ~ 8500 Кбит/сек
Аудио#1: Английский, 48,0 КГц, AC3, 2 канала(ов), ~192 Кбит/сек [Оригинал]
Аудио#2: Немецкий, 48,0 КГц, AC3, 2 канала(ов), ~192 Кбит/сек
Аудио#3: Русский, 48,0 КГц, AC3, 2 канала(ов), ~192 Кбит/сек [Профессиональный (двухголосый, закадровый)]
Аудио#4: Русский, 48,0 КГц, AC3, 2 канала(ов), ~192 Кбит/сек [Авторский (одноголосый) В. Махонько]
Аудио#5: Испанский, 48,0 КГц, AC3, 2 канала(ов), ~192 Кбит/сек


Формат: MPEG-PS
Размер файла: 1024 Мбайт
Продолжительность: 17 м.
Общий поток: 8040 Кбит/сек
Видео
Идентификатор: 224 (0xE0)
Формат: MPEG Video
Версия формата: Version 2
Профиль формата: Main@Main
Параметр BVOP формата: Да
Параметр матрицы формата: По умолчанию
Параметры GOP формата: M=3, N=12
Продолжительность: 17 м.
Вид битрейта: Переменный
Битрейт: 6920 Кбит/сек
Номинальный битрейт: 8500 Кбит/сек
Ширина: 720 пикс.
Высота: 576 пикс.
Соотношение сторон: 16:9
Частота кадров: 25,000 кадр/сек
Стандарт вещания: PAL
Цветовое пространство: YUV
Подвыборка цветности: 4:2:0
Битовая глубина: 8 бит
Тип развёртки: Чересстрочная
Порядок развёртки: Верхнее поле первое
Метод сжатия: С потерями
Бит/(Пиксели*Кадры): 0.667
Размер потока: 881 Мбайт (86%)
Аудио #1
Идентификатор: 128 (0x80)
Формат: AC-3
Формат/Информация: Audio Coding 3
Режим: Dual Mono
Расширение режима: CM (complete main)
Продолжительность: 17 м.
Вид битрейта: Постоянный
Битрейт: 192 Кбит/сек
Канал(ы): 2 канала(ов)
Расположение каналов: Front: L R
Частота: 48,0 КГц
Битовая глубина: 16 бит
Метод сжатия: С потерями
Задержка видео: -80 мс.
Размер потока: 24,5 Мбайт (2%)
Аудио #2
Идентификатор: 129 (0x81)
Формат: AC-3
Формат/Информация: Audio Coding 3
Режим: Dual Mono
Расширение режима: CM (complete main)
Продолжительность: 17 м.
Вид битрейта: Постоянный
Битрейт: 192 Кбит/сек
Канал(ы): 2 канала(ов)
Расположение каналов: Front: L R
Частота: 48,0 КГц
Битовая глубина: 16 бит
Метод сжатия: С потерями
Задержка видео: -80 мс.
Размер потока: 24,5 Мбайт (2%)
Аудио #3
Идентификатор: 130 (0x82)
Формат: AC-3
Формат/Информация: Audio Coding 3
Расширение режима: CM (complete main)
Продолжительность: 17 м.
Вид битрейта: Постоянный
Битрейт: 192 Кбит/сек
Канал(ы): 2 канала(ов)
Расположение каналов: Front: L R
Частота: 48,0 КГц
Битовая глубина: 16 бит
Метод сжатия: С потерями
Задержка видео: -80 мс.
Размер потока: 24,5 Мбайт (2%)
Аудио #4
Идентификатор: 131 (0x83)
Формат: AC-3
Формат/Информация: Audio Coding 3
Расширение режима: CM (complete main)
Продолжительность: 17 м.
Вид битрейта: Постоянный
Битрейт: 192 Кбит/сек
Канал(ы): 2 канала(ов)
Расположение каналов: Front: L R
Частота: 48,0 КГц
Битовая глубина: 16 бит
Метод сжатия: С потерями
Задержка видео: -80 мс.
Размер потока: 24,5 Мбайт (2%)
Аудио #5
Идентификатор: 132 (0x84)
Формат: AC-3
Формат/Информация: Audio Coding 3
Режим: Dual Mono
Расширение режима: CM (complete main)
Продолжительность: 17 м.
Вид битрейта: Постоянный
Битрейт: 192 Кбит/сек
Канал(ы): 2 канала(ов)
Расположение каналов: Front: L R
Частота: 48,0 КГц
Битовая глубина: 16 бит
Метод сжатия: С потерями
Задержка видео: -80 мс.
Размер потока: 24,5 Мбайт (2%)
Меню



























Поделиться:




реклама партнёра


Вернуться к началу
 Профиль Отправить личное сообщение  
 
   Похожие торренты   Автор   Торрент   Размер 
В этой теме нет новых непрочитанных сообщений. Белая молния / White Lightning [боевик, драма, криминал, 1973] BDRip, Dvo [НТВ+]

salma3

69 | 12

1.45 ГБ

В этой теме нет новых непрочитанных сообщений. Черная мама, белая мама / Black Mama White Mama [боевик, криминал, драма, 1973] BDRip 720p, Dvo [НТВ]

salma3

39 | 11

5.38 ГБ

В этой теме нет новых непрочитанных сообщений. Большая белая обуза / The Big White [драма, комедия, криминал, 2005] HDRip-AVC, Dub

salma3

77 | 15

1.47 ГБ

В этой теме нет новых непрочитанных сообщений. Джек - Молния / Lightning Jack [комедия, вестерн, 1994] DVDRip, Avo

salma3

38 | 2

1.38 ГБ

В этой теме нет новых непрочитанных сообщений. Расплата / The Accountant [Боевик, триллер, драма, криминал, 2016] DVD9, Dub+Avo+Sub [Custom]

salma3

28 | 29

7.36 ГБ

В этой теме нет новых непрочитанных сообщений. Кибер / Blackhat (Майкл Манн) [боевик, триллер, драма, криминал, детектив, 2015] DVD9, Dub+Sub [лицензия]

Dracon

0 | 0

6.83 ГБ

В этой теме нет новых непрочитанных сообщений. Белая девушка / White Girl [Драма, 2016] WEB-DLRip, Dvo

salma3

1157 | 510

1.42 ГБ


Начать новую тему Ответить на тему  [ 1 сообщение ] 




Для Мосгорсуда, Роскомнадзора и рекламодателей:: mosgorsud-torrent[собачка]yandex.ru