Торрент файл
скачать торрент магнет ссылка Добавлен: 10 дек 2011, 00:05
Размер: 6.7 ГБ
Сидеров: 1
Личеров: 3
Автор

СообщениеДобавлено: 10 дек 2011, 00:05 

Не в сети
Супермодератор
Аватара пользователя
Дата регистрации:
11 апр 2010, 18:10
Спасибо: 5802 / 7
Сообщения: 56779
Супер 8 / Super 8



Перевод: Профессиональный (полное дублирование)
Субтитры: Русские, английские, украинские
Формат: DVD9, DVD Video, MPEG2, AC3
Страна: США
Режиссер: Джей Джей Абрамс
Жанр: Фантастика, триллер, детектив
Продолжительность: 01:47:42
Год выпуска: 2011

В ролях: Джоэль Кортни, Эль Фаннинг, Райли Гриффитс, Райан Ли, Гэбриел Бассо, Захари Миллс, Кайл Чандлер, Джессика Так, Джоэль МакКиннон Миллер, Рон Элдард и др.

Описание: Летом 1979 года несколько друзей из маленького городка в Огайо, снимающие любительский фильм на камеру «Супер 8», стали свидетелями железнодорожной катастрофы. И вскоре они начинают подозревать, что это не было просто несчастным случаем. Странные исчезновения и необъяснимые события начинают происходить в городке, и местный шериф пытается разгадать их тайну — что-то куда более ужасающее, чем все могли себе представить...

Рейтинг на IMDb: 7.3/10
Рейтинг на КиноПоиск.Ru: 6.693
Рейтинг MPAA: PG-13

Видео: 720x576 (PAL16:9), MPEG-2 Video, 25.000 fps, ~ 5899 kbps avg
Аудио #1: Русский: 48.0 kHz, АС3, 6 ch, ~ 448 Kbps avg [Профессиональный (полное дублирование)]
Аудио #2: Украинский: 48.0 kHz, АС3, 6 ch, ~ 448 Kbps avg [Профессиональный (полное дублирование)]
Аудио #3: Английский: 48.0 kHz, АС3, 6 ch, ~ 448 Kbps avg [Оригинал]
Аудио #4: Английский: 48.0 kHz, АС3, 2 ch, ~ 192Kbps avg [Оригинал]

семпл


    Meню озвученное,анимированное, на русском, английском языках
    Комментарий Дж. Дж. Абрамса
    Мечта о "Super 8"
    Пришелец жив
    Закадровые комментарии создателей фильма / на английском

Как и в других фильмах режиссера Джей Джей Абрамса, съемки «Супер 8» проводились в обстановке чрезвычайной секретности.
Фильм сложился из двух отдельных проектов - истории взросления подростков, изучающих жизнь через видоискатель камеры Super 8, и предложенного сюжета для постановки, связанного с пресловутой «Зоной 51» (военной базой ВВС США, где, по легенде, проводят опыты над инопланетными организмами).
Чтобы соблюсти секретность, картину снимали под названием «Дорогуши» («Darlings»).
В любительском кино о зомби, которое снимают герои фильма, фигурирует компания Romero Chemicals. Это дань уважения режиссеру Джорджу Ромеро.
Подростки снимали свой любительский фильм на 8-миллиметровую пленку Eastman Color Super 8. Эта пленка была разработана в 1965 году и была популярна у любителей поснимать, которыми были Джей Джей Абрамс и Стивен Спилберг.

Формат: MPEG-PS
Размер файла: 1024 Мбайт
Продолжительность: 18 м.
Режим общего битрейта: Переменный
Общий поток: 7586 Кбит/сек
Библиотека кодирования: encoded by TMPGEnc (ver. 2.524.63.181)

Видео
Идентификатор: 224 (0xE0)
Формат: MPEG Video
Версия формата: Version 2
Профиль формата: Main@Main
Параметр BVOP формата: Да
Параметр матрицы формата: Выборочная
Продолжительность: 18 м.
Вид битрейта: Переменный
Битрейт: 5899 Кбит/сек
Ширина: 720 пикселей
Высота: 576 пикселей
Соотношение сторон: 16:9
Частота кадров: 25,000 кадров/сек
Стандарт вещания: Component
Цветовое пространство: YUV
Субдискретизация насыщенности: 4:2:0
Битовая глубина: 8 бит
Тип развёртки: Прогрессивная
Метод сжатия: С потерями
Бит/(Пиксели*Кадры): 0.569
Размер потока: 796 Мбайт (78%)
Библиотека кодирования: TMPGEnc 2.524.63.181

Аудио #1
Идентификатор: 189 (0xBD)-128 (0x80)
Формат: AC-3
Формат/Информация: Audio Coding 3
Расширение режима: CM (complete main)
Режим смешивания: DVD-Video
Продолжительность: 18 м.
Вид битрейта: Постоянный
Битрейт: 448 Кбит/сек
Каналы: 6 каналов
Расположение каналов: Front: L C R, Side: L R, LFE
Частота: 48,0 КГц
Битовая глубина: 16 бит
Метод сжатия: С потерями
Задержка видео: -60 мс.
Размер потока: 60,5 Мбайт (6%)

Аудио #2
Идентификатор: 189 (0xBD)-129 (0x81)
Формат: AC-3
Формат/Информация: Audio Coding 3
Расширение режима: CM (complete main)
Режим смешивания: DVD-Video
Продолжительность: 18 м.
Вид битрейта: Постоянный
Битрейт: 448 Кбит/сек
Каналы: 6 каналов
Расположение каналов: Front: L C R, Side: L R, LFE
Частота: 48,0 КГц
Битовая глубина: 16 бит
Метод сжатия: С потерями
Задержка видео: -60 мс.
Размер потока: 60,5 Мбайт (6%)

Аудио #3
Идентификатор: 189 (0xBD)-130 (0x82)
Формат: AC-3
Формат/Информация: Audio Coding 3
Расширение режима: CM (complete main)
Режим смешивания: DVD-Video
Продолжительность: 18 м.
Вид битрейта: Постоянный
Битрейт: 448 Кбит/сек
Каналы: 6 каналов
Расположение каналов: Front: L C R, Side: L R, LFE
Частота: 48,0 КГц
Битовая глубина: 16 бит
Метод сжатия: С потерями
Задержка видео: -60 мс.
Размер потока: 60,5 Мбайт (6%)

Аудио #4
Идентификатор: 189 (0xBD)-131 (0x83)
Формат: AC-3
Формат/Информация: Audio Coding 3
Расширение режима: CM (complete main)
Режим смешивания: DVD-Video
Продолжительность: 18 м.
Вид битрейта: Постоянный
Битрейт: 192 Кбит/сек
Каналы: 2 канала
Расположение каналов: Front: L R
Частота: 48,0 КГц
Битовая глубина: 16 бит
Метод сжатия: С потерями
Задержка видео: -60 мс.
Размер потока: 25,9 Мбайт (3%)

Текст #1
Идентификатор: 189 (0xBD)-32 (0x20)
Формат: RLE
Формат/Информация: Run-length encoding
Режим смешивания: DVD-Video
Задержка видео: -60 мс.

Текст #2
Идентификатор: 189 (0xBD)-33 (0x21)
Формат: RLE
Формат/Информация: Run-length encoding
Режим смешивания: DVD-Video
Задержка видео: -60 мс.

Текст #3
Идентификатор: 189 (0xBD)-34 (0x22)
Формат: RLE
Формат/Информация: Run-length encoding
Режим смешивания: DVD-Video
Задержка видео: -60 мс.

Текст #4
Идентификатор: 189 (0xBD)-35 (0x23)
Формат: RLE
Формат/Информация: Run-length encoding
Режим смешивания: DVD-Video
Задержка видео: -60 мс.

Текст #5
Идентификатор: 189 (0xBD)-36 (0x24)
Формат: RLE
Формат/Информация: Run-length encoding
Режим смешивания: DVD-Video
Задержка видео: -60 мс.

Текст #6
Идентификатор: 189 (0xBD)-37 (0x25)
Формат: RLE
Формат/Информация: Run-length encoding
Режим смешивания: DVD-Video
Задержка видео: -60 мс.

Текст #7
Идентификатор: 189 (0xBD)-38 (0x26)
Формат: RLE
Формат/Информация: Run-length encoding
Режим смешивания: DVD-Video
Продолжительность: 18 м.
Задержка видео: -60 мс.

Текст #8
Идентификатор: 189 (0xBD)-39 (0x27)
Формат: RLE
Формат/Информация: Run-length encoding
Режим смешивания: DVD-Video
Продолжительность: 18 м.
Задержка видео: -60 мс.

Текст #9
Идентификатор: 189 (0xBD)-40 (0x28)
Формат: RLE
Формат/Информация: Run-length encoding
Режим смешивания: DVD-Video
Задержка видео: -60 мс.

Текст #10
Идентификатор: 189 (0xBD)-41 (0x29)
Формат: RLE
Формат/Информация: Run-length encoding
Режим смешивания: DVD-Video
Задержка видео: -60 мс.

Текст #11
Идентификатор: 189 (0xBD)-42 (0x2A)
Формат: RLE
Формат/Информация: Run-length encoding
Режим смешивания: DVD-Video
Задержка видео: -60 мс.

Текст #12
Идентификатор: 189 (0xBD)-43 (0x2B)
Формат: RLE
Формат/Информация: Run-length encoding
Режим смешивания: DVD-Video
Задержка видео: -60 мс.

Меню












































Поделиться:




реклама партнёра


Вернуться к началу
 Профиль Отправить личное сообщение  
 
   Похожие торренты   Автор   Торрент   Размер 
В этой теме нет новых непрочитанных сообщений. Самый жестокий год / A Most Violent Year (Джей Си Чендор) [боевик, триллер, драма, криминал, 2014] HDRip, dvo

Dracon

92 | 4

1.35 ГБ

В этой теме нет новых непрочитанных сообщений. Самый жестокий год / A Most Violent Year (Джей Си Чендор) [2014, Драма, боевик, триллер, криминал, WEB-DLRip 720p] Sub

Nickolas3435

419 | 21

1.89 ГБ

В этой теме нет новых непрочитанных сообщений. Самый жестокий год / A Most Violent Year (Джей Си Чендор) [боевик, триллер, драма, криминал, 2014] BDRip 1080p, dvo+avo+sub

Dracon

2 | 2

11.9 ГБ

В этой теме нет новых непрочитанных сообщений. Самый жестокий год / A Most Violent Year (Джей Си Чендор) [боевик, триллер, драма, криминал, 2014] BDRip 720p, dvo+sub

Dracon

74 | 7

5.21 ГБ

В этой теме нет новых непрочитанных сообщений. Самый жестокий год / A Most Violent Year (Джей Си Чендор) [боевик, триллер, драма, криминал, 2014] BDRip 720p, dvo

Dracon

90 | 15

2.86 ГБ

В этой теме нет новых непрочитанных сообщений. Бэтмен: Нападение на Аркхэм / Batman: Assault on Arkham (Джей Олива) [2014, мультфильм, боевик, триллер, криминал, BDRip 720p]

Nickolas3435

189 | 8

4.32 ГБ

В этой теме нет новых непрочитанных сообщений. Смертельные узы / Wedlock [Фантастика, боевик, триллер, 1991] DVD9, Dvo+Avo

salma3

7 | 7

6.75 ГБ


Начать новую тему Ответить на тему  [ 1 сообщение ] 




Для Мосгорсуда, Роскомнадзора и рекламодателей:: mosgorsud-torrent[собачка]yandex.ru