Торрент файл
скачать торрент магнет ссылка Добавлен: 10 дек 2011, 00:05
Размер: 6.39 ГБ
Сидеров: 0
Личеров: 7
Автор

СообщениеДобавлено: 10 дек 2011, 00:05 

Не в сети
Супермодератор
Аватара пользователя
Дата регистрации:
11 апр 2010, 18:10
Спасибо: 5960 / 7
Сообщения: 56765
Затерянный мир / Land of the Lost



Перевод: Профессиональный (полное дублирование)
Субтитры: Украинские
Формат: DVD9, DVD Video, MPEG2, AC3, DTS
Страна: США
Режиссер: Брэд Силберлинг
Жанр: фантастика, фэнтези, боевик, комедия, приключения
Продолжительность: 01:37:38
Год выпуска: 2009

В ролях: : Уилл Феррелл, Анна Фрил, Дэнни МакБрайд, Йорма Такконе, Джон Бойлан, Мэтт Лоэр, Бобби Дж. Томпсон, Сьерра МакКормик, Шеннон Лемке

Описание: Невероятно-захватывающие приключения неудачника-палеонтолога, его ассистентки и красавчика-гида, которые случайно находят странный мир, заселенный динозаврами и прочими австралопитеками.

Рейтинг КиноПоиск.RU: 5.633
Рейтинги MPAA: PG-13
Рейтинг на IMDB: 5.3

Видео: 720x576 (PAL 16:9), 25,000 fps, MPEG-2 Video ~ 9800 kbps avg
Аудио #1: Русский: 48 kHz, AC3 Dolby Digital, 6 ch, ~ 448kbps avg [Профессиональный (полное дублирование)]
Аудио #2: Русский: 48 kHz, DTS Dolby Digital, 6 ch, ~ 755kbps avg [Профессиональный (полное дублирование))]

Доп.информация: [Лицензионное издание «Юниверсал Пикчерс Рус»]
Meню озвученное, статичное, на русском языке, с навигацией по эпизодам. Все кнопки функциональны.

Слоган: «В нужном месте. В ненужный час.»


Общее
Полное имя: D:\затерянный мир\VIDEO_TS\VTS_02_4.VOB
Формат: MPEG-PS
Размер файла: 1024 Мбайт
Продолжительность: 15 м.
Режим общего битрейта: Переменный
Общий поток: 9153 Кбит/сек

Видео
Идентификатор: 224 (0xE0)
Формат: MPEG Video
Версия формата: Version 2
Профиль формата: Main@Main
Параметр BVOP формата: Да
Параметр матрицы формата: Выборочная
Параметр GOP формата: M=3, N=12
Продолжительность: 15 м.
Вид битрейта: Переменный
Битрейт: 7768 Кбит/сек
Максимальный битрейт: 9800 Кбит/сек
Ширина: 720 пикселей
Высота: 576 пикселей
Соотношение сторон: 16:9
Частота кадров: 25,000 кадров/сек
Стандарт вещания: PAL
Цветовое пространство: YUV
Субдискретизация насыщенности: 4:2:0
Битовая глубина: 8 бит
Тип развёртки: Чересстрочная
Порядок развёртки: Верхнее поле первое
Метод сжатия: С потерями
Бит/(Пиксели*Кадры): 0.749
Размер потока: 869 Мбайт (85%)

Аудио #1
Идентификатор: 189 (0xBD)-128 (0x80)
Формат: AC-3
Формат/Информация: Audio Coding 3
Расширение режима: CM (complete main)
Режим смешивания: DVD-Video
Продолжительность: 15 м.
Вид битрейта: Постоянный
Битрейт: 448 Кбит/сек
Каналы: 6 каналов
Расположение каналов: Front: L C R, Side: L R, LFE
Частота: 48,0 КГц
Битовая глубина: 16 бит
Метод сжатия: С потерями
Задержка видео: -312 мс.
Размер потока: 50,1 Мбайт (5%)

Аудио #2
Идентификатор: 189 (0xBD)-137 (0x89)
Формат: DTS
Формат/Информация: Digital Theater Systems
Режим смешивания: DVD-Video
Продолжительность: 15 м.
Вид битрейта: Постоянный
Битрейт: 755 Кбит/сек
Каналы: 6 каналов
Расположение каналов: Front: L C R, Side: L R, LFE
Частота: 48,0 КГц
Битовая глубина: 24 бит
Метод сжатия: С потерями
Задержка видео: -376 мс.
Размер потока: 84,4 Мбайт (8%)

Текст
Идентификатор: 189 (0xBD)-32 (0x20)
Формат: RLE
Формат/Информация: Run-length encoding
Режим смешивания: DVD-Video
Задержка видео: 2 с. 680 мс.





















Поделиться:




реклама партнёра


Вернуться к началу
 Профиль Отправить личное сообщение  
 
   Похожие торренты   Автор   Торрент   Размер 
В этой теме нет новых непрочитанных сообщений. Тарзан и затерянный город / Tarzan and the Lost City [фэнтези, боевик, приключения, семейный, 1998] DVDRip, Avo

salma3

46 | 9

1.46 ГБ

В этой теме нет новых непрочитанных сообщений. Парк Юрского периода 2: Затерянный мир / The Lost World: Jurassic Park [фантастика, боевик, приключения, 1997] BDRip 1080p, Dub

salma3

30 | 34

10.15 ГБ

В этой теме нет новых непрочитанных сообщений. Атлантида: Затерянный мир / Atlantis: The Lost Empire [мультфильм, фантастика, приключения, 2001] BDRip 720p, Dub

salma3

33 | 10

7.31 ГБ

В этой теме нет новых непрочитанных сообщений. Затерянный город Z / The Lost City of Z [Боевик, драма, приключения, 2016] Blu-Ray 1080p, Dub [Лицензия]

salma3

0 | 0

21.71 ГБ

В этой теме нет новых непрочитанных сообщений. Затерянный город Z / The Lost City of Z [Боевик, драма, приключения, 2016] BDRemux 1080p, Dub [Лицензия]

salma3

19 | 11

41.45 ГБ

В этой теме нет новых непрочитанных сообщений. Восхождение Юпитер / Jupiter Ascending (Энди Вачовски, Лана Вачовски) [фантастика, фэнтези, боевик, приключения, 2015] DVD9, Dub+Sub [Лицензия]

Dracon

0 | 1

6.91 ГБ

В этой теме нет новых непрочитанных сообщений. Кредо убийцы / Assassin's Creed [Фантастика, фэнтези, боевик, 2016] DVD9, Dub [Custom]

salma3

79 | 38

7.36 ГБ


Начать новую тему Ответить на тему  [ 1 сообщение ] 




Для Мосгорсуда, Роскомнадзора и рекламодателей:: mosgorsud-torrent[собачка]yandex.ru