Торрент файл
скачать торрент магнет ссылка Добавлен: 10 дек 2011, 00:05
Размер: 6.04 ГБ
Сидеров: 7
Личеров: 3
Автор

СообщениеДобавлено: 10 дек 2011, 00:05 

Не в сети
Супермодератор
Аватара пользователя
Дата регистрации:
11 апр 2010, 18:10
Спасибо: 5801 / 7
Сообщения: 56779
Влюбись в меня, если осмелишься / Jeux d'enfants



Перевод: Профессиональный (полное дублирование)
Субтитры: Отсутсвуют
Формат: DVD9, DVD Video, MPEG2, AC3
Страна: Франция, Бельгия
Режиссер: Ян Самюэль
Жанр: драма, мелодрама
Продолжительность: 01:30:10
Год выпуска: 2003

В ролях: Гийом Кане, Марион Котийяр, Тибо Верхак, Жозефин Леба-Жоли, Эммануэль Грёнвольд, Жерар Уоткинс, Жиль Лелуш,
Джулия Форе, Литиция Венеция Тарновска,Элоди Наварр


Описание: Судьба свела их не зря: вдвоем они составили странную, но гармоничную пару. Они родились великими выдумщиками, такими, от которых стонала школа. Их проделки можно было бы осудить и окрестить их закоренелыми хулиганами, если бы эти двое не были просто маленькими детьми.

Они придумали игру, такую, которую могли придумать только они, игру «осмелишься — не осмелишься». Они брали друг друга «на слабо». Игра росла вместе с ними, и однажды они стали взрослыми. Все изменилось, но они уже не могли отличить игру от жизни, потому что игра была их жизнью. Никто не хотел уступать. Они шутили и смеялись, они делали друг другу больно, они страдали и теряли годы…

Они знали, что любят друг друга, они произносили эти слова, но игра возвращалась, не позволяя им стать просто мужчиной и женщиной… Однажды изменилось и это…


Рейтинг КиноПоиск.RU: 7.886
рейтинг MPAA: R
Рейтинг на IMDB: 7.6

Видео: 720x576 (PAL 2,35:1), 25,000 fps, MPEG-2 Video ~ 8500 kbps avg
Аудио #1: Русский: 48 kHz, AC3 Dolby Digital, 6 ch, ~ 448kbps avg [Профессиональный (полное дублирование)]
Аудио #2: Французский: 48 kHz, AC3 Dolby Digital, 6 ch, ~ 384kbps avg [Оригинал]
Аудио #3: Французский: 48 kHz, AC3 Dolby Digital, 2 ch, ~ 384 kbps avg [Оригинал]

Доп.информация: [Лицензионное издание «Проба Медиа Продакшн»]
Meню озвученное, частично анимированное, на русском языке, с навигацией по эпизодам. Все кнопки функциональны.

Слоган: «Ты в игре?»


Общее
Полное имя: D:\Влюбись в меня, если осмелишься\VIDEO_TS\VTS_01_3.VOB
Формат: MPEG-PS
Размер файла: 1024 Мбайт
Продолжительность: 18 м.
Режим общего битрейта: Переменный
Общий поток: 7717 Кбит/сек

Видео
Идентификатор: 224 (0xE0)
Формат: MPEG Video
Версия формата: Version 2
Профиль формата: Main@Main
Параметр BVOP формата: Да
Параметр матрицы формата: По умолчанию
Параметр GOP формата: M=3, N=13
Продолжительность: 18 м.
Вид битрейта: Переменный
Битрейт: 6348 Кбит/сек
Максимальный битрейт: 8500 Кбит/сек
Ширина: 720 пикселей
Высота: 576 пикселей
Соотношение сторон: 2,35:1
Частота кадров: 25,000 кадров/сек
Стандарт вещания: PAL
Цветовое пространство: YUV
Субдискретизация насыщенности: 4:2:0
Битовая глубина: 8 бит
Тип развёртки: Чересстрочная
Порядок развёртки: Верхнее поле первое
Метод сжатия: С потерями
Бит/(Пиксели*Кадры): 0.612
Размер потока: 842 Мбайт (82%)
Основные цвета: BT.470-2 System B, BT.470-2 System G
Характеристики трансфера: BT.470-2 System B, BT.470-2 System G
Коэффициенты матрицы: BT.470-2 System B, BT.470-2 System G

Аудио #1
Идентификатор: 189 (0xBD)-128 (0x80)
Формат: AC-3
Формат/Информация: Audio Coding 3
Расширение режима: CM (complete main)
Режим смешивания: DVD-Video
Продолжительность: 18 м.
Вид битрейта: Постоянный
Битрейт: 448 Кбит/сек
Каналы: 6 каналов
Расположение каналов: Front: L C R, Side: L R, LFE
Частота: 48,0 КГц
Битовая глубина: 16 бит
Метод сжатия: С потерями
Задержка видео: -184 мс.
Размер потока: 59,4 Мбайт (6%)

Аудио #2
Идентификатор: 189 (0xBD)-129 (0x81)
Формат: AC-3
Формат/Информация: Audio Coding 3
Расширение режима: CM (complete main)
Режим смешивания: DVD-Video
Продолжительность: 18 м.
Вид битрейта: Постоянный
Битрейт: 384 Кбит/сек
Каналы: 6 каналов
Расположение каналов: Front: L C R, Side: L R, LFE
Частота: 48,0 КГц
Битовая глубина: 16 бит
Метод сжатия: С потерями
Задержка видео: -216 мс.
Размер потока: 50,9 Мбайт (5%)

Аудио #3
Идентификатор: 189 (0xBD)-130 (0x82)
Формат: AC-3
Формат/Информация: Audio Coding 3
Расширение режима: CM (complete main)
Режим смешивания: DVD-Video
Продолжительность: 18 м.
Вид битрейта: Постоянный
Битрейт: 384 Кбит/сек
Каналы: 2 канала
Расположение каналов: Front: L R
Частота: 48,0 КГц
Битовая глубина: 16 бит
Метод сжатия: С потерями
Задержка видео: -216 мс.
Размер потока: 50,9 Мбайт (5%)
























Поделиться:




реклама партнёра


Вернуться к началу
 Профиль Отправить личное сообщение  
 
   Похожие торренты   Автор   Торрент   Размер 
В этой теме нет новых непрочитанных сообщений. Влюбись в меня, если осмелишься / Jeux d'enfants [драма, мелодрама, 2003] BDRip 1080p, Dub+Sub

salma3

71 | 36

7.76 ГБ

В этой теме нет новых непрочитанных сообщений. Влюбись в меня, если осмелишься / Jeux d'enfants / Love Me If You Dare [драма, мелодрама, 2003] BDRip, Dub

salma3

12 | 2

1.45 ГБ

В этой теме нет новых непрочитанных сообщений. Плохие парни 2 / Bad Boys II [боевик, триллер, комедия, 2003] DVD9, Dub+Sub

salma3

23 | 8

5.66 ГБ

В этой теме нет новых непрочитанных сообщений. Последний меч самурая / Mibu gishi den / When the last sword is drawn [Исторический, 2003] DVD9, Mvo+Avo

salma3

15 | 5

6.22 ГБ

В этой теме нет новых непрочитанных сообщений. Агент Коди Бэнкс / Agent Cody Banks [Комедия, боевик, приключения, фантастика, 2003] DVD9, Dub+Dvo+Sub

salma3

5 | 6

7.86 ГБ

В этой теме нет новых непрочитанных сообщений. Одноклассники.ru: НаCLICKай удачу [мелодрама, комедия, 2013] DVD9 [Лицензия]

Dracon

11 | 4

5.27 ГБ

В этой теме нет новых непрочитанных сообщений. Джек-попрыгунчик / Jumpin' Jack Flash [триллер, комедия, мелодрама, 1986] DVD9, Mvo+Sub

salma3

0 | 6

5 ГБ


Начать новую тему Ответить на тему  [ 1 сообщение ] 




Для Мосгорсуда, Роскомнадзора и рекламодателей:: mosgorsud-torrent[собачка]yandex.ru