Торрент файл
скачать торрент магнет ссылка Добавлен: 10 дек 2011, 00:04
Размер: 5.45 ГБ
Сидеров: 7
Личеров: 5
Автор

СообщениеДобавлено: 10 дек 2011, 00:04 

Не в сети
Супермодератор
Аватара пользователя
Дата регистрации:
11 апр 2010, 18:10
Спасибо: 5960 / 7
Сообщения: 56765
Спеши любить / A Walk to Remember



Перевод: профессиональный (полное дублирование)
Субтитры: Английсккие, русские
Формат: DVD9, DVD Video, MPEG2, AC3
Страна: США
Режиссер: Адам Шенкман
Жанр: драма, мелодрама
Продолжительность: 01:37:48
Год выпуска: 2002

В ролях: Шэйн Уэст, Мэнди Мур, Питер Койот, Дэрил Ханна, Лорен Джерман, Клейн Кроуфорд, Аль Томпсон, Пас де ла Уэрта, Джонатан Паркс Джордан, Мэтт Лутс

Описание: Лэндон Картер — кумир своей школы: он независим, красив и жесток к изгоям. И конечно, он не замечает невзрачную Джэйми, думающую только об учебе. После очередной дурацкой выходки Картера заставляют заниматься с отстающими и играть в школьном спектакле.

Тут уж ему не обойтись без помощи скромной отличницы. Джэйми соглашается помочь Лэндону, но только если он пообещает, что не будет влюбляться в нее. Самонадеянный парень охотно дает клятву, но вскоре он убедится, что сдержать ее будет очень непросто…


Рейтинг КиноПоиск.RU: 7.800
рейтинг MPAA: PG
Рейтинг на IMDB: 7.1

Видео: 720x480 (NTSC 16:9), 23,976 fps, MPEG-2 Video ~ 7500 kbps avg
Аудио #1: Русский: 48 kHz, AC3 Dolby Digital, 6 ch, ~ 448kbps avg [Профессиональный (полное дублирование)]
Аудио #2: Русский: 48 kHz, AC3 Dolby Digital, 6 ch, ~ 384kbps avg [Профессиональный (многоголосый, закадровый)]
Аудио #3: Английский: 48 kHz, AC3 Dolby Digital, 6 ch, ~ 448 kbps avg [Оригинал]

Доп.информация: [Лицензионное издание «Парадиз 2000»]
Meню озвученное, статичное, на русском языке, с навигацией по эпизодам. Все кнопки функциональны.

Слоган: «Наша любовь, как ветер, ее не видишь, но чувствуешь...»


Общее
Полное имя: D:\Спеши любить\VIDEO_TS\VTS_01_4.VOB
Формат: MPEG-PS
Размер файла: 1024 Мбайт
Продолжительность: 19 м.
Режим общего битрейта: Переменный
Общий поток: 7265 Кбит/сек

Видео
Идентификатор: 224 (0xE0)
Формат: MPEG Video
Версия формата: Version 2
Профиль формата: Main@Main
Параметр BVOP формата: Да
Параметр матрицы формата: Выборочная
Параметр GOP формата: M=3, N=12
Продолжительность: 19 м.
Вид битрейта: Переменный
Битрейт: 5840 Кбит/сек
Максимальный битрейт: 7500 Кбит/сек
Ширина: 720 пикселей
Высота: 480 пикселей
Соотношение сторон: 16:9
Частота кадров: 23,976 кадра/сек
Стандарт вещания: NTSC
Цветовое пространство: YUV
Субдискретизация насыщенности: 4:2:0
Битовая глубина: 8 бит
Тип развёртки: Прогрессивная
Порядок развёртки: 2:3 Pulldown
Метод сжатия: С потерями
Бит/(Пиксели*Кадры): 0.705
Размер потока: 823 Мбайт (80%)

Аудио #1
Идентификатор: 189 (0xBD)-128 (0x80)
Формат: AC-3
Формат/Информация: Audio Coding 3
Расширение режима: CM (complete main)
Режим смешивания: DVD-Video
Продолжительность: 19 м.
Вид битрейта: Постоянный
Битрейт: 448 Кбит/сек
Каналы: 6 каналов
Расположение каналов: Front: L C R, Side: L R, LFE
Частота: 48,0 КГц
Битовая глубина: 16 бит
Метод сжатия: С потерями
Задержка видео: -284 мс.
Размер потока: 63,1 Мбайт (6%)

Аудио #2
Идентификатор: 189 (0xBD)-129 (0x81)
Формат: AC-3
Формат/Информация: Audio Coding 3
Расширение режима: CM (complete main)
Режим смешивания: DVD-Video
Продолжительность: 19 м.
Вид битрейта: Постоянный
Битрейт: 384 Кбит/сек
Каналы: 6 каналов
Расположение каналов: Front: L C R, Side: L R, LFE
Частота: 48,0 КГц
Битовая глубина: 16 бит
Метод сжатия: С потерями
Задержка видео: -284 мс.
Размер потока: 54,1 Мбайт (5%)

Аудио #3
Идентификатор: 189 (0xBD)-130 (0x82)
Формат: AC-3
Формат/Информация: Audio Coding 3
Расширение режима: CM (complete main)
Режим смешивания: DVD-Video
Продолжительность: 19 м.
Вид битрейта: Постоянный
Битрейт: 448 Кбит/сек
Каналы: 6 каналов
Расположение каналов: Front: L C R, Side: L R, LFE
Частота: 48,0 КГц
Битовая глубина: 16 бит
Метод сжатия: С потерями
Задержка видео: -284 мс.
Размер потока: 63,1 Мбайт (6%)

Текст #1
Идентификатор: 189 (0xBD)-32 (0x20)
Формат: RLE
Формат/Информация: Run-length encoding
Режим смешивания: DVD-Video
Продолжительность: 19 м.
Задержка видео: 14 с.

Текст #2
Идентификатор: 189 (0xBD)-33 (0x21)
Формат: RLE
Формат/Информация: Run-length encoding
Режим смешивания: DVD-Video
Продолжительность: 19 м.
Задержка видео: 14 с.

Текст #3
Идентификатор: 189 (0xBD)-34 (0x22)
Формат: RLE
Формат/Информация: Run-length encoding
Режим смешивания: DVD-Video
Продолжительность: 19 м.
Задержка видео: 14 с.

Текст #4
Идентификатор: 224 (0xE0)-DVD-2
Формат: EIA-608
Режим смешивания: DVD-Video
Режим смешивания, доп. информаци : Muxed in Video #1
Вид битрейта: Постоянный
Размер потока: 0,00 байт (0%)






















Поделиться:




реклама партнёра


Вернуться к началу
 Профиль Отправить личное сообщение  
 
   Похожие торренты   Автор   Торрент   Размер 
В этой теме нет новых непрочитанных сообщений. Пассажиры / Passengers [Фантастика, драма, мелодрама, 2016] DVD9, Dub [Custom]

salma3

59 | 18

6.66 ГБ

В этой теме нет новых непрочитанных сообщений. Помни меня / Remember Me [мелодрама, драма, 2010] BDRemux, Dub

salma3

16 | 36

27.44 ГБ

В этой теме нет новых непрочитанных сообщений. Помни воскресенье / Remember Sunday (Джефф Блекнер) [Драма, Мелодрама, 2013] HDTVRip, Mvo

Dracon

6 | 3

1.43 ГБ

В этой теме нет новых непрочитанных сообщений. Запомни ночь / Remember the Night [драма, мелодрама, комедия, 1940] BDRip 720p, Mvo+Avo+Sub

salma3

6 | 5

5.97 ГБ

В этой теме нет новых непрочитанных сообщений. Прогулка в облаках / A Walk in the Clouds [Драма, мелодрама, 1995] BDRip 720p, Mvo

salma3

27 | 20

7.54 ГБ

В этой теме нет новых непрочитанных сообщений. Кудамм – 56 -1/ Любить - но как? / KuDamm 56 / Lieben - aber wie? (Свен Бохзе / Sven Bohse) [2016г., Германия, драма, мелодрама, семейная сага, HDTVRip] sub

Alfredovich

1 | 0

654.87 МБ

В этой теме нет новых непрочитанных сообщений. Любить и верить [01-04 из 04] [мелодрама, 2017] SATRip-AVC

salma3

778 | 107

2.19 ГБ


Начать новую тему Ответить на тему  [ 1 сообщение ] 




Для Мосгорсуда, Роскомнадзора и рекламодателей:: mosgorsud-torrent[собачка]yandex.ru