COVID-19 - Последняя информация о коронавирусе на сайте Минздрава




Торрент файл
скачать торрент магнет ссылка Добавлен: 10 дек 2011, 00:04
Размер: 7.37 ГБ
Сидеров: 0
Личеров: 3
Автор

СообщениеДобавлено: 10 дек 2011, 00:04 

Не в сети
Супермодератор
Аватара пользователя
Дата регистрации:
11 апр 2010, 18:10
Спасибо: 6059 / 7
Сообщения: 56660
Свидетель на свадьбе / The Best Man



Перевод: Профессиональный (полное дублирование)
Субтитры: Отсутсвуют
Формат: DVD9, DVD Video, MPEG2, AC3, DTS
Страна: США, Германия, Великобритания, Венгрия
Режиссер: Стефан Шварц
Жанр: мелодрама, комедия
Продолжительность: 01:31:37
Год выпуска: 2005

В ролях: Сет Грин, Эми Смарт, Стюарт Таунсенд, Джордж Мендел, Кайли Миноуг, Джейн Хау, Кейт Эшфилд, Стив Джон Шеперд, Анна Чэнселлор, Джоди Мэй, Мат Хауманн, Раймонд Култхард, Мартин Хэнкок, Стюарт Райт, Дэвид Ойелово, Юдит Виктор, Мэтт Девере, Лили Бордан, Джанин Вуд, Лукач Бичкей

Описание: Олли — писатель-неудачник, имеющий самую посредственную работу для человека своего круга. Казалось бы, его жизнь уже лишена всякого смысла… Но однажды случай меняет все… Раздается неожиданный звонок от друга по колледжу Джеймса с просьбой стать свидетелем на его свадьбе.

И, конечно же, Олли влюбляется с первого взгляда в красавицу-невесту, в будущую жену своего лучшего друга. Всячески пытаясь сдержать свои чувства к Саре, главный герой постепенно понимает, что его лучший друг — вовсе не тот мужчина, который заслуживает любви такой прекрасной девушки. А что, если жених и свидетель поменяются местами?…


Рейтинг КиноПоиск.RU: 7.125
Рейтинг MPAA: R
Рейтинг на IMDB: 6.0

Видео: 720x576 (PAL 16:9), 25,000 fps, MPEG-2 Video ~ 9800 kbps avg
Аудио #1: Русский: 48 kHz, AC3 Dolby Digital, 6 ch, ~ 384kbps avg [Профессиональный (полное дублирование)]
Аудио #2: Русский: 48 kHz, AC3 Dolby Digital, 2 ch, ~ 192kbps avg [Профессиональный (полное дублирование)]
Аудио #3: Английский: 48 kHz, AC3 Dolby Digital, 2 ch, ~ 192 kbps avg [Оригинал]
Аудио #3: Русский: 48 kHz, DTS Dolby Digital, 6 ch, ~ 755 kbps avg [Профессиональный (полное дублирование)]

Доп.информация: [Лицензионное издание «Люксор»]
Meню озвученное, статичное, на русском языке, с навигацией по эпизодам. Все кнопки функциональны.

Слоган: «Он был готов на всё... ради девушки своей мечты»


Общее
Полное имя: D:\свидетель на свадьбе\VIDEO_TS\VTS_02_3.VOB
Формат: MPEG-PS
Размер файла: 1024 Мбайт
Продолжительность: 15 м.
Общий поток: 9340 Кбит/сек

Видео
Идентификатор: 224 (0xE0)
Формат: MPEG Video
Версия формата: Version 2
Профиль формата: Main@Main
Параметр BVOP формата: Да
Параметр матрицы формата: Выборочная
Продолжительность: 15 м.
Битрейт: 7632 Кбит/сек
Максимальный битрейт: 9800 Кбит/сек
Ширина: 720 пикселей
Высота: 576 пикселей
Соотношение сторон: 16:9
Частота кадров: 25,000 кадров/сек
Стандарт вещания: PAL
Цветовое пространство: YUV
Субдискретизация насыщенности: 4:2:0
Битовая глубина: 8 бит
Тип развёртки: Чересстрочная
Порядок развёртки: Нижнее поле первое
Метод сжатия: С потерями
Бит/(Пиксели*Кадры): 0.736
Размер потока: 836 Мбайт (82%)

Аудио #1
Идентификатор: 189 (0xBD)-128 (0x80)
Формат: AC-3
Формат/Информация: Audio Coding 3
Расширение режима: CM (complete main)
Режим смешивания: DVD-Video
Продолжительность: 15 м.
Вид битрейта: Постоянный
Битрейт: 384 Кбит/сек
Каналы: 6 каналов
Расположение каналов: Front: L C R, Side: L R, LFE
Частота: 48,0 КГц
Битовая глубина: 16 бит
Метод сжатия: С потерями
Задержка видео: -488 мс.
Размер потока: 42,1 Мбайт (4%)

Аудио #2
Идентификатор: 189 (0xBD)-129 (0x81)
Формат: AC-3
Формат/Информация: Audio Coding 3
Расширение режима: CM (complete main)
Режим смешивания: DVD-Video
Продолжительность: 15 м.
Вид битрейта: Постоянный
Битрейт: 192 Кбит/сек
Каналы: 2 канала
Расположение каналов: Front: L R
Частота: 48,0 КГц
Битовая глубина: 16 бит
Метод сжатия: С потерями
Задержка видео: -456 мс.
Размер потока: 21,0 Мбайт (2%)

Аудио #3
Идентификатор: 189 (0xBD)-130 (0x82)
Формат: AC-3
Формат/Информация: Audio Coding 3
Расширение режима: CM (complete main)
Режим смешивания: DVD-Video
Продолжительность: 15 м.
Вид битрейта: Постоянный
Битрейт: 192 Кбит/сек
Каналы: 2 канала
Расположение каналов: Front: L R
Частота: 48,0 КГц
Битовая глубина: 16 бит
Метод сжатия: С потерями
Задержка видео: -456 мс.
Размер потока: 21,0 Мбайт (2%)

Аудио #4
Идентификатор: 189 (0xBD)-139 (0x8B)
Формат: DTS
Формат/Информация: Digital Theater Systems
Режим смешивания: DVD-Video
Продолжительность: 15 м.
Вид битрейта: Постоянный
Битрейт: 755 Кбит/сек
Каналы: 6 каналов
Расположение каналов: Front: L C R, Side: L R, LFE
Частота: 48,0 КГц
Битовая глубина: 24 бит
Метод сжатия: С потерями
Задержка видео: -541 мс.
Размер потока: 82,7 Мбайт (8%)

























Поделиться:



Скачать книги и аудио книги через торрент


Вернуться к началу
 Профиль Отправить личное сообщение  
 
   Похожие торренты   Автор   Торрент   Размер 
В этой теме нет новых непрочитанных сообщений. Человек – швейцарский нож / Swiss Army Man [фэнтези, драма, мелодрама, 2016] DVD9, Dub [Лицензия]

salma3

0 | 0

6.09 ГБ

В этой теме нет новых непрочитанных сообщений. Человек-муравей и Оса / Ant-Man and the Wasp [фантастика, боевик, комедия, приключения, 2018] DVD9, Dub | [Лицензия]

NTL

1 | 0

6.63 ГБ

В этой теме нет новых непрочитанных сообщений. Книжный клуб / Book Club [комедия, мелодрама, 2018] DVD9, Dub [Лицензия]

salma3

0 | 0

7.83 ГБ

В этой теме нет новых непрочитанных сообщений. Звезда родилась / A Star Is Born [мелодрама, музыка, 2018] DVD9, Dub [Лицензия]

salma3

0 | 0

6.26 ГБ

В этой теме нет новых непрочитанных сообщений. 12-й человек / Den 12. mann / The 12th Man [Военный, драма, 2017] DVD9, Mvo

K15

0 | 0

5.54 ГБ

В этой теме нет новых непрочитанных сообщений. Жених на двоих / Jour J [комедия, 2017] DVD9, Dub | Лицензия

K15

0 | 0

5.82 ГБ

В этой теме нет новых непрочитанных сообщений. Вкус ночи / Wir sind die Nacht [ужасы, фэнтези, драма, мелодрама, 2010] DVD9, Dub

NTL

0 | 0

6.61 ГБ


Начать новую тему Ответить на тему  [ 1 сообщение ] 




Для Мосгорсуда, Роскомнадзора и рекламодателей:: rstracker[собака]yandex.ru
cron