Торрент файл
скачать торрент магнет ссылка Добавлен: 10 дек 2011, 00:03
Размер: 7.35 ГБ
Сидеров: 4
Личеров: 6
Автор

СообщениеДобавлено: 10 дек 2011, 00:03 

Не в сети
Супермодератор
Аватара пользователя
Дата регистрации:
11 апр 2010, 18:10
Спасибо: 5802 / 7
Сообщения: 56779
Дневник памяти / The Notebook



Перевод: Профессиональный (полное дублирование)
Субтитры:Русские, английские
Формат: DVD9, DVD Video, MPEG2, AC3
Страна: США
Режиссер: Ник Кассаветис
Жанр: драма, мелодрама
Продолжительность: 01:58:42
Год выпуска: 2004

В ролях: Райан Гослинг, Рэйчел МакАдамс, Джеймс Гарнер, Джина Роулэндс, Джеймс Мэрсден, Сэм Шепард, Дэвид Торнтон, Джоан Аллен, Кевин Коннолли, Дженнифер Экхолс

Описание: Трогательная история любви, прочитанная пожилым мужчиной из старой записной книжки женщине в доме престарелых. Это история отношений юноши и девушки из разных социальных слоев, живших в Северной Каролине. Ной и Элли провели вместе незабываемое лето, пока их не разделили вначале родители, а затем Вторая мировая война.

После войны все изменилось: Элли обручилась с удачливым бизнесменом, а Ной жил наедине со своими воспоминаниями в старинном доме, который ему удалось отреставрировать. Когда Элли прочла об этом в местной газете, она поняла: ей нужно найти его и решить наконец судьбу их любви…


Рейтинг КиноПоиск.RU: 8.336
Рейтинг MPAA: PG-13
Рейтинг на IMDB: 7.9

Видео: 720x576 (PAL 16:9), 25,000 fps, MPEG-2 Video ~ 9800 kbps avg
Аудио #1: Английский: 48 kHz, AC3 Dolby Digital, 6 ch, ~ 448kbps avg [Оригинал]
Аудио #2: Русский: 48 kHz, AC3 Dolby Digital, 2 ch, ~ 448kbps avg [Профессиональный (полное дублирование)]
Аудио #3: Английский: 48 kHz, AC3 Dolby Digital, 2 ch, ~ 192 kbps avg [Комментарии рижессёра]
Аудио #4: Английский: 48 kHz, AC3 Dolby Digital, 2 ch, ~ 192 kbps avg [Комментарии рижессёра]

Доп.информация: [Лицензионное издание «ВС трейд»]
Meню озвученное, статичное, на русском языке, с навигацией по эпизодам. Все кнопки функциональны.

Слоган: «За каждой большой любовью стоит большая история»


Общее
Полное имя: D:\DVD9\Дневник памяти\VTS_03_3.VOB
Формат: MPEG-PS
Размер файла: 1024 Мбайт
Продолжительность: 25 м.
Режим общего битрейта: Переменный
Общий поток: 5681 Кбит/сек

Видео
Идентификатор: 224 (0xE0)
Формат: MPEG Video
Версия формата: Version 2
Профиль формата: Main@Main
Параметр BVOP формата: Да
Параметр матрицы формата: Выборочная
Параметр GOP формата: M=3, N=12
Продолжительность: 25 м.
Вид битрейта: Переменный
Битрейт: 4288 Кбит/сек
Максимальный битрейт: 9800 Кбит/сек
Ширина: 720 пикселей
Высота: 576 пикселей
Соотношение сторон: 16:9
Частота кадров: 25,000 кадров/сек
Стандарт вещания: PAL
Цветовое пространство: YUV
Субдискретизация насыщенности: 4:2:0
Битовая глубина: 8 бит
Тип развёртки: Прогрессивная
Порядок развёртки: Верхнее поле первое
Метод сжатия: С потерями
Бит/(Пиксели*Кадры): 0.414
Размер потока: 773 Мбайт (75%)

Аудио #1
Идентификатор: 189 (0xBD)-128 (0x80)
Формат: AC-3
Формат/Информация: Audio Coding 3
Расширение режима: CM (complete main)
Режим смешивания: DVD-Video
Продолжительность: 25 м.
Вид битрейта: Постоянный
Битрейт: 448 Кбит/сек
Каналы: 6 каналов
Расположение каналов: Front: L C R, Side: L R, LFE
Частота: 48,0 КГц
Битовая глубина: 16 бит
Метод сжатия: С потерями
Задержка видео: -256 мс.
Размер потока: 80,7 Мбайт (8%)

Аудио #2
Идентификатор: 189 (0xBD)-129 (0x81)
Формат: AC-3
Формат/Информация: Audio Coding 3
Расширение режима: CM (complete main)
Режим смешивания: DVD-Video
Продолжительность: 25 м.
Вид битрейта: Постоянный
Битрейт: 448 Кбит/сек
Каналы: 6 каналов
Расположение каналов: Front: L C R, Side: L R, LFE
Частота: 48,0 КГц
Битовая глубина: 16 бит
Метод сжатия: С потерями
Задержка видео: -256 мс.
Размер потока: 80,7 Мбайт (8%)

Аудио #3
Идентификатор: 189 (0xBD)-130 (0x82)
Формат: AC-3
Формат/Информация: Audio Coding 3
Профиль формата: Dolby Digital
Расширение режима: CM (complete main)
Режим смешивания: DVD-Video
Продолжительность: 25 м.
Вид битрейта: Постоянный
Битрейт: 192 Кбит/сек
Каналы: 2 канала
Расположение каналов: Front: L R
Частота: 48,0 КГц
Битовая глубина: 16 бит
Метод сжатия: С потерями
Задержка видео: -224 мс.
Размер потока: 34,6 Мбайт (3%)

Аудио #4
Идентификатор: 189 (0xBD)-131 (0x83)
Формат: AC-3
Формат/Информация: Audio Coding 3
Профиль формата: Dolby Digital
Расширение режима: CM (complete main)
Режим смешивания: DVD-Video
Продолжительность: 25 м.
Вид битрейта: Постоянный
Битрейт: 192 Кбит/сек
Каналы: 2 канала
Расположение каналов: Front: L R
Частота: 48,0 КГц
Битовая глубина: 16 бит
Метод сжатия: С потерями
Задержка видео: -224 мс.
Размер потока: 34,6 Мбайт (3%)

Текст #1
Идентификатор: 189 (0xBD)-32 (0x20)
Формат: RLE
Формат/Информация: Run-length encoding
Режим смешивания: DVD-Video
Продолжительность: 25 м.
Задержка видео: 1 с. 0 мс.

Текст #2
Идентификатор: 189 (0xBD)-33 (0x21)
Формат: RLE
Формат/Информация: Run-length encoding
Режим смешивания: DVD-Video
Продолжительность: 25 м.
Задержка видео: 600 мс.

























Поделиться:




реклама партнёра


Вернуться к началу
 Профиль Отправить личное сообщение  
 
   Похожие торренты   Автор   Торрент   Размер 
В этой теме нет новых непрочитанных сообщений. Агент Коди Бэнкс 2: Пункт назначения - Лондон / Agent Cody Banks 2: Destination London [боевик, приключения, семейный, 2004] DVD9, Dub+Dvo+Sub

salma3

13 | 5

6.46 ГБ

В этой теме нет новых непрочитанных сообщений. Одноклассники.ru: НаCLICKай удачу [мелодрама, комедия, 2013] DVD9 [Лицензия]

Dracon

11 | 4

5.27 ГБ

В этой теме нет новых непрочитанных сообщений. Джек-попрыгунчик / Jumpin' Jack Flash [триллер, комедия, мелодрама, 1986] DVD9, Mvo+Sub

salma3

0 | 6

5 ГБ

В этой теме нет новых непрочитанных сообщений. Дневник девочки-подростка / The Diary of a Teenage Girl [Драма, мелодрама, 2015] HDRip, Mvo [iTunes]

Dracon

223 | 11

2.04 ГБ

В этой теме нет новых непрочитанных сообщений. Дневник девочки-подростка / The Diary of a Teenage Girl [Драма, мелодрама, 2015] HDRip, Mvo [iTunes]

Dracon

656 | 43

1.46 ГБ

В этой теме нет новых непрочитанных сообщений. Дневник девочки-подростка / The Diary of a Teenage Girl [Драма, мелодрама, 2015] BDRip 720p, Mvo [iTunes]

Dracon

7 | 1

4.64 ГБ

В этой теме нет новых непрочитанных сообщений. Дневник девочки-подростка / The Diary of a Teenage Girl [Драма, мелодрама, 2015] BDRip 1080p, Mvo [iTunes]

Dracon

38 | 3

7.92 ГБ


Начать новую тему Ответить на тему  [ 1 сообщение ] 




Для Мосгорсуда, Роскомнадзора и рекламодателей:: mosgorsud-torrent[собачка]yandex.ru