COVID-19 - Последняя информация о коронавирусе на сайте Минздрава




Торрент файл
скачать торрент магнет ссылка Добавлен: 10 дек 2011, 00:03
Размер: 7 ГБ
Сидеров: 0
Личеров: 6
Автор

СообщениеДобавлено: 10 дек 2011, 00:03 

Не в сети
Супермодератор
Аватара пользователя
Дата регистрации:
11 апр 2010, 18:10
Спасибо: 6059 / 7
Сообщения: 56660
Форрест Гамп / Forrest Gump



Перевод: Профессиональный (многоголосый, закадровый)
Субтитры: Отсутсвуют
Формат: DVD9, DVD Video, MPEG2, AC3
Страна: США
Режиссер: Роберт Земекис
Жанр: драма, мелодрама, комедия
Продолжительность: 02:16:17
Год выпуска: 1994

В ролях: Том Хэнкс, Робин Райт, Гэри Синиз, Майкелти Уильямсон, Салли Филд, Ребекка Уильямс, Майкл Коннер Хэмпфри, Харольд Дж. Хертэм, Джордж Келли, Боб Пенни

Описание: От лица главного героя Форреста Гампа, слабоумного безобидного человека с благородным и открытым сердцем, рассказывается история его необыкновенной жизни.

Фантастическим образом превращается он в известного футболиста, героя войны, преуспевающего бизнесмена. Он становится миллиардером, но остается таким же бесхитростным, глупым и добрым. Форреста ждет постоянный успех во всем, а он любит девочку, с которой дружил в детстве, но взаимность приходит слишком поздно.


Рейтинг КиноПоиск.RU: 9.007
Рейтинг MPAA: PG-13
Рейтинг на IMDB: 8.7

Видео: 720x576 (PAL 16:9), 25,000 fps, MPEG-2 Video ~ 9800 kbps avg
Аудио #1: Русский: 48 kHz, AC3 Dolby Digital, 6 ch, ~ 448kbps avg [Профессиональный (многоголосый, закадровый)]
Аудио #2: Английский: 48 kHz, AC3 Dolby Digital, 6 ch, ~ 448kbps avg [Оригинал]

Доп.информация: [Лицензионное издание «Юниверсал Пикчерс Рус»]
Meню озвученное, статичное, на русском языке, с навигацией по эпизодам. Все кнопки функциональны.

Слоган: «Мир уже никогда не будет прежним, после того как вы увидите его глазами Форреста Гампа.»

Оскар, 1995 год
Победитель (6):
Лучший фильм
Лучшая мужская роль (Том Хэнкс)
Лучший режиссер (Роберт Земекис)
Лучший адаптированный сценарий
Лучший монтаж
Лучшие визуальные эффекты
Номинации (7):
Лучшая мужская роль второго плана (Гэри Синиз)
Лучшая работа оператора
Лучшие декорации
Лучший звук
Лучший монтаж звука
Лучший грим
Лучший оригинальный саундтрек

Золотой глобус, 1995 год
Победитель (3):
Лучший фильм (драма)
Лучшая мужская роль (драма) (Том Хэнкс)
Лучший режиссер (Роберт Земекис)
Номинации (4):
Лучшая мужская роль второго плана (Гэри Синиз)
Лучшая женская роль второго плана (Робин Райт)
Лучший сценарий
Лучший саундтрек

Премия канала «MTV», 1995 год
Номинации (3):
Прорыв года (Майкелти Уильямсон)
Лучший фильм
Лучшая мужская роль (Том Хэнкс)

Британская академия, 1995 год
Победитель (1):
Лучшие визуальные эффекты
Номинации (7):
Лучший фильм
Лучшая мужская роль (Том Хэнкс)
Лучшая женская роль второго плана (Салли Филд)
Лучший адаптированный сценарий
Лучшая работа оператора
Лучший монтаж
Премия имени Дэвида Лина за достижения в режиссуре (Роберт Земекис)

Сатурн, 1995 год
Победитель (2):
Лучший актер второго плана (Гэри Синиз)
Лучший фэнтези-фильм
Номинации (6):
Лучший актер (Том Хэнкс)
Лучшая актриса второго плана (Робин Райт)
Лучший режиссер (Роберт Земекис)
Лучший сценарий
Лучшие спецэффекты
Лучшая музыка

Общее
Полное имя: D:\DVD9\Форрест Гамп\VIDEO_TS\VTS_02_3.VOB
Формат: MPEG-PS
Размер файла: 1024 Мбайт
Продолжительность: 19 м.
Режим общего битрейта: Переменный
Общий поток: 7397 Кбит/сек

Видео
Идентификатор: 224 (0xE0)
Формат: MPEG Video
Версия формата: Version 2
Профиль формата: Main@Main
Параметр BVOP формата: Да
Параметр матрицы формата: Выборочная
Продолжительность: 19 м.
Вид битрейта: Переменный
Битрейт: 6354 Кбит/сек
Максимальный битрейт: 9800 Кбит/сек
Ширина: 720 пикселей
Высота: 576 пикселей
Соотношение сторон: 16:9
Частота кадров: 25,000 кадров/сек
Стандарт вещания: PAL
Цветовое пространство: YUV
Субдискретизация насыщенности: 4:2:0
Битовая глубина: 8 бит
Тип развёртки: Чересстрочная
Порядок развёртки: Верхнее поле первое
Метод сжатия: С потерями
Бит/(Пиксели*Кадры): 0.613
Размер потока: 879 Мбайт (86%)

Аудио #1
Идентификатор: 189 (0xBD)-128 (0x80)
Формат: AC-3
Формат/Информация: Audio Coding 3
Расширение режима: CM (complete main)
Режим смешивания: DVD-Video
Продолжительность: 19 м.
Вид битрейта: Постоянный
Битрейт: 448 Кбит/сек
Каналы: 6 каналов
Расположение каналов: Front: L C R, Side: L R, LFE
Частота: 48,0 КГц
Битовая глубина: 16 бит
Метод сжатия: С потерями
Задержка видео: -560 мс.
Размер потока: 62,0 Мбайт (6%)

Аудио #2
Идентификатор: 189 (0xBD)-129 (0x81)
Формат: AC-3
Формат/Информация: Audio Coding 3
Расширение режима: CM (complete main)
Режим смешивания: DVD-Video
Продолжительность: 19 м.
Вид битрейта: Постоянный
Битрейт: 448 Кбит/сек
Каналы: 6 каналов
Расположение каналов: Front: L C R, Side: L R, LFE
Частота: 48,0 КГц
Битовая глубина: 16 бит
Метод сжатия: С потерями
Задержка видео: -560 мс.
Размер потока: 62,0 Мбайт (6%)






















Поделиться:



Скачать книги и аудио книги через торрент


Вернуться к началу
 Профиль Отправить личное сообщение  
 
   Похожие торренты   Автор   Торрент   Размер 
В этой теме нет новых непрочитанных сообщений. Форрест Гамп / Forrest Gump [драма, мелодрама, 1994] UHD BDRemux 2160p, Mvo [Dolby Vision]

salma3

0 | 0

99.43 ГБ

В этой теме нет новых непрочитанных сообщений. Влюбленные / Amanti [Мелодрама, драма, 1968] DVD9, Mvo

salma3

0 | 0

4.61 ГБ

В этой теме нет новых непрочитанных сообщений. Крик совы / Le cri du hibou [триллер, драма, мелодрама, 1987] DVD9, Mvo

salma3

0 | 1

4.63 ГБ

В этой теме нет новых непрочитанных сообщений. Парад / Parada [Драма, комедия, 2011] DVD9, Mvo

NTL

0 | 0

7.06 ГБ

В этой теме нет новых непрочитанных сообщений. Закат американской империи / Le Declin de l'empire americain [драма, комедия, 1986] DVD9, Mvo

salma3

14 | 11

5.79 ГБ

В этой теме нет новых непрочитанных сообщений. Планктон / Plankton / Creatures from the Abyss [ужасы, фантастика, 1994] DVD9, Avo

salma3

0 | 0

4.99 ГБ

В этой теме нет новых непрочитанных сообщений. Книжный клуб / Book Club [комедия, мелодрама, 2018] DVD9, Dub [Лицензия]

salma3

0 | 0

7.83 ГБ


Начать новую тему Ответить на тему  [ 1 сообщение ] 




Для Мосгорсуда, Роскомнадзора и рекламодателей:: rstracker[собака]yandex.ru
cron