Торрент файл
скачать торрент магнет ссылка Добавлен: 10 дек 2011, 00:03
Размер: 4.95 ГБ
Сидеров: 0
Личеров: 6
Автор

СообщениеДобавлено: 10 дек 2011, 00:03 

Не в сети
Супермодератор
Аватара пользователя
Дата регистрации:
11 апр 2010, 18:10
Спасибо: 5801 / 7
Сообщения: 56779
Драйв / Drive



Перевод: Профессиональный (полное дублирование)
Субтитры: Отсутствуют
Формат: DVD9, DVD Video, MPEG2, AC3
Страна: США
Режиссер: Николас Виндинг Рефн
Жанр: триллер, драма, криминал
Продолжительность: 01:36:41
Год выпуска: 2011

В ролях: Райан Гослинг, Кэри Маллиган, Брайан Крэнстон, Альберт Брукс, Оскар Айзек, Кристина Хендрикс, Рон Перлман, Каден Леос, Джефф Вульф, Джеймс Бибери....

Описание: Великолепный гонщик: при свете дня он выполняет каскадерские трюки на съёмочных площадках Голливуда, а по ночам ведет рискованную игру. Но один опасный контракт – и за его жизнь назначена награда. Теперь, чтобы остаться в живых и спасти свою очаровательную соседку, он должен делать то, что умеет лучше всего – виртуозно уходить от погони......

Рейтинг на IMDB: 8.2/10
Рейтинг на КиноПоиске: 7.461
Рейтинг на MPAA: R

Видео: 720x576 (PAL16:9), MPEG-2 Video, 25.000 fps, ~ 8000 kbps avg
Аудио #1: Русский: 48.0 kHz, АС3, 6 ch, ~ 448 Kbps avg [Профессиональный (полное дублирование)]
Аудио #2: Английский: 48.0 kHz, АС3, 2 ch, ~ 448 Kbps avg [Оригинал]

Семпл


* Картина поставлена по одноименной книге Джеймса Саллиса «Гони!»
* Райан Гослинг заменил в проекте Хью Джекмана.
* Николас Виндинг Рефн заменил на режиссерском посту Нила Маршала.
* Джасинда Барретт пробовалась на роль Бланш.
* Герой Райана Гослинг уезжает от погони на автомобиле Ford Mustang GT 5.0.
.................................................................................
Приз 64-го Каннского Кинофестиваля 2011 г. за лучшую режиссуру / Золотая пальмовая ветвь

    Meню озвученное,анимированное, на русском языке
    Фотогалерея

Формат: MPEG-PS
Размер файла: 1024 Мбайт
Продолжительность: 20 м.
Режим общего битрейта: Переменный
Общий поток: 7014 Кбит/сек

Видео
Идентификатор: 224 (0xE0)
Формат: MPEG Video
Версия формата: Version 2
Профиль формата: Main@Main
Параметр BVOP формата: Да
Параметр матрицы формата: Выборочная
Продолжительность: 20 м.
Вид битрейта: Переменный
Битрейт: 5979 Кбит/сек
Максимальный битрейт: 8000 Кбит/сек
Ширина: 720 пикселей
Высота: 576 пикселей
Соотношение сторон: 16:9
Частота кадров: 25,000 кадров/сек
Стандарт вещания: PAL
Цветовое пространство: YUV
Субдискретизация насыщенности: 4:2:0
Битовая глубина: 8 бит
Тип развёртки: Чересстрочная
Порядок развёртки: Нижнее поле первое
Метод сжатия: С потерями
Бит/(Пиксели*Кадры): 0.577
Размер потока: 873 Мбайт (85%)

Аудио #1
Идентификатор: 189 (0xBD)-128 (0x80)
Формат: AC-3
Формат/Информация: Audio Coding 3
Расширение режима: CM (complete main)
Режим смешивания: DVD-Video
Продолжительность: 20 м.
Вид битрейта: Постоянный
Битрейт: 448 Кбит/сек
Каналы: 6 каналов
Расположение каналов: Front: L C R, Side: L R, LFE
Частота: 48,0 КГц
Битовая глубина: 16 бит
Метод сжатия: С потерями
Размер потока: 65,4 Мбайт (6%)

Аудио #2
Идентификатор: 189 (0xBD)-129 (0x81)
Формат: AC-3
Формат/Информация: Audio Coding 3
Расширение режима: CM (complete main)
Режим смешивания: DVD-Video
Продолжительность: 20 м.
Вид битрейта: Постоянный
Битрейт: 448 Кбит/сек
Каналы: 6 каналов
Расположение каналов: Front: L C R, Side: L R, LFE
Частота: 48,0 КГц
Битовая глубина: 16 бит
Метод сжатия: С потерями
Размер потока: 65,4 Мбайт (6%)

Меню






















Поделиться:




реклама партнёра


Вернуться к началу
 Профиль Отправить личное сообщение  
 
   Похожие торренты   Автор   Торрент   Размер 
В этой теме нет новых непрочитанных сообщений. Ночной драйв / Night Drive [ужасы, триллер, 2010] HDRip, Mvo

salma3

23 | 5

1.46 ГБ

В этой теме нет новых непрочитанных сообщений. Ночной драйв / Night Drive [ужасы, триллер, 2010] BDRip 720p, Mvo

salma3

48 | 3

4.51 ГБ

В этой теме нет новых непрочитанных сообщений. Радиоволна / Frequency [триллер, фантастика, драма, криминал, 2000] DVD9, Mvo+Sub

salma3

11 | 2

5.06 ГБ

В этой теме нет новых непрочитанных сообщений. Воскрешение / Resurrection [ужасы, триллер, драма, криминал, детектив, 1999] DVD9, Dvo+Avo+Sub

salma3

16 | 3

5.34 ГБ

В этой теме нет новых непрочитанных сообщений. Целуя девушек / Kiss the Girls [триллер, драма, криминал, детектив, 1997] DVD9, 2Mvo+Dvo+2Avo+Sub

salma3

26 | 11

7.83 ГБ

В этой теме нет новых непрочитанных сообщений. Кибер / Blackhat (Майкл Манн) [боевик, триллер, драма, криминал, детектив, 2015] DVD9, Dub+Sub [лицензия]

Dracon

0 | 0

6.83 ГБ

В этой теме нет новых непрочитанных сообщений. Need for Speed: Жажда скорости / Need for Speed [Боевик, триллер, драма, криминал, 2014] DVD9, Dub+Sub [Лицензия]

salma3

73 | 8

7.14 ГБ


Начать новую тему Ответить на тему  [ 1 сообщение ] 




Для Мосгорсуда, Роскомнадзора и рекламодателей:: mosgorsud-torrent[собачка]yandex.ru