COVID-19 - Последняя информация о коронавирусе на сайте Минздрава




Торрент файл
скачать торрент магнет ссылка Добавлен: 10 дек 2011, 00:02
Размер: 7.67 ГБ
Сидеров: 9
Личеров: 8
Автор

СообщениеДобавлено: 10 дек 2011, 00:02 

Не в сети
Супермодератор
Аватара пользователя
Дата регистрации:
11 апр 2010, 18:10
Спасибо: 6059 / 7
Сообщения: 56660
Достучаться до небес / Knockin' on Heaven's Door



Перевод: Профессиональный(полное дублирование)
Субтитры: Русскике
Формат: DVD9, DVD Video, MPEG2, AC3
Страна: Германия, Бельгия
Режиссер: Томас Ян
Жанр: боевик, драма, комедия, криминал
Продолжительность: 01:25:14
Год выпуска: 1997

В ролях: Тиль Швайгер, Ян Йозеф Лиферс, Тьерри Ван Вервеке, Мориц Бляйбтрой, Хуб Стапель, Леонард Лэнсинк, Ральф Херфорт, Корнелия Фробесс, Рутгер Хауэр, Кристиана Пауль

Описание: Судьба сводит героев картины в больнице, где врачи выносят им смертный приговор. Счет времени их жизней идет на часы. Дальнейшие события в фильме разворачиваются в стремительном темпе. Украв машину с миллионом немецких марок в багажнике, они сбегают из больницы.

Их преследуют наемные убийцы, они становятся грабителями поневоле, за ними гонится полиция, они попадают в бордель. Но тем не менее продолжают мчаться вперед, навстречу своей судьбе.


Рейтинг КиноПоиск.RU: 8.702
Рейтинг MPAA: R
Рейтинг на IMDB: 7.8

Видео: 720x576 (PAL4:3), 25,000 fps, MPEG-2 Video ~ 6247 kbps avg
Аудио #1: Русский: 48 kHz, AC3 Dolby Digital, 2 ch, ~ 224kbps avg [Профессиональный (полное дублирование)]
Аудио #2: Русский: 48 kHz, AC3 Dolby Digital, 6 ch, ~ 224kbps avg [Профессиональный (полное дублирование)]
Аудио #3: Немецкий: 48 kHz, AC3 Dolby Digital, 6 ch, ~ 448 kbps avg [Оригинал]

Доп.информация: [Лицензионное издание «Союз-Видео»]
Meню озвученное, статичное, на русском языке, с навигацией по эпизодам. Все кнопки функциональны.

Слоган: «Быстрый автомобиль, миллион марок в багажнике, и всего одна неделя жить.»


Общее
Полное имя: D:\DVD9\Достучаться до небес\VIDEO_TS\VTS_01_3.VOB
Формат: MPEG-PS
Размер файла: 1024 Мбайт
Продолжительность: 19 м.
Режим общего битрейта: Переменный
Общий поток: 7288 Кбит/сек

Видео
Идентификатор: 224 (0xE0)
Формат: MPEG Video
Версия формата: Version 2
Профиль формата: Main@Main
Параметр BVOP формата: Да
Параметр матрицы формата: Выборочная
Параметр GOP формата: M=3, N=15
Продолжительность: 19 м.
Вид битрейта: Переменный
Битрейт: 6247 Кбит/сек
Ширина: 720 пикселей
Высота: 576 пикселей
Соотношение сторон: 4:3
Частота кадров: 25,000 кадров/сек
Стандарт вещания: PAL
Цветовое пространство: YUV
Субдискретизация насыщенности: 4:2:0
Битовая глубина: 8 бит
Тип развёртки: Чересстрочная
Порядок развёртки: Верхнее поле первое
Метод сжатия: С потерями
Бит/(Пиксели*Кадры): 0.603
Размер потока: 878 Мбайт (86%)

Аудио #1
Идентификатор: 189 (0xBD)-128 (0x80)
Формат: AC-3
Формат/Информация: Audio Coding 3
Расширение режима: CM (complete main)
Режим смешивания: DVD-Video
Продолжительность: 19 м.
Вид битрейта: Постоянный
Битрейт: 224 Кбит/сек
Каналы: 2 канала
Расположение каналов: Front: L R
Частота: 48,0 КГц
Битовая глубина: 16 бит
Метод сжатия: С потерями
Задержка видео: -232 мс.
Размер потока: 31,5 Мбайт (3%)

Аудио #2
Идентификатор: 189 (0xBD)-129 (0x81)
Формат: AC-3
Формат/Информация: Audio Coding 3
Расширение режима: CM (complete main)
Режим смешивания: DVD-Video
Продолжительность: 19 м.
Вид битрейта: Постоянный
Битрейт: 224 Кбит/сек
Каналы: 6 каналов
Расположение каналов: Front: L C R, Side: L R, LFE
Частота: 48,0 КГц
Битовая глубина: 16 бит
Метод сжатия: С потерями
Задержка видео: -232 мс.
Размер потока: 31,5 Мбайт (3%)

Аудио #3
Идентификатор: 189 (0xBD)-130 (0x82)
Формат: AC-3
Формат/Информация: Audio Coding 3
Расширение режима: CM (complete main)
Режим смешивания: DVD-Video
Продолжительность: 19 м.
Вид битрейта: Постоянный
Битрейт: 448 Кбит/сек
Каналы: 6 каналов
Расположение каналов: Front: L C R, Side: L R, LFE
Частота: 48,0 КГц
Битовая глубина: 16 бит
Метод сжатия: С потерями
Задержка видео: -296 мс.
Размер потока: 62,9 Мбайт (6%)

Текст
Идентификатор: 189 (0xBD)-32 (0x20)
Формат: RLE
Формат/Информация: Run-length encoding
Режим смешивания: DVD-Video
Задержка видео: 520 мс.


























Поделиться:



Скачать книги и аудио книги через торрент


Вернуться к началу
 Профиль Отправить личное сообщение  
 
   Похожие торренты   Автор   Торрент   Размер 
В этой теме нет новых непрочитанных сообщений. Форсаж 8 / The Fate of the Furious [Боевик, триллер, криминал, 2017] DVD9, Dub

salma3

28 | 10

7.92 ГБ

В этой теме нет новых непрочитанных сообщений. Великий уравнитель 2 / The Equalizer 2 [боевик, триллер, криминал, 2018] DVD9, Dub | [Лицензия]

NTL

0 | 0

5.61 ГБ

В этой теме нет новых непрочитанных сообщений. Удача Логана / Logan Lucky [Комедия, криминал, 2017] DVD9, Dub [Лицензия]

salma3

0 | 0

7.7 ГБ

В этой теме нет новых непрочитанных сообщений. Вдовы / Widows [триллер, драма, криминал, 2018] DVD9, Dub | [Лицензия]

NTL

1 | 0

7.63 ГБ

В этой теме нет новых непрочитанных сообщений. Дэдпул 2 / Deadpool 2 [фантастика, боевик, комедия, приключения, 2018] DVD9, Dub | Лицензия

NTL

7 | 0

6.1 ГБ

В этой теме нет новых непрочитанных сообщений. Женщины мафии / Kobiety mafii [Драма, криминал, боевик, 2018] DVD9, Avo

salma3

0 | 1

6.63 ГБ

В этой теме нет новых непрочитанных сообщений. Джуманджи: Зов джунглей / Jumanji: Welcome to the Jungle [фэнтези, боевик, комедия, 2017] DVD9, Dub [Лицензия]

salma3

0 | 0

6.72 ГБ


Начать новую тему Ответить на тему  [ 1 сообщение ] 




Для Мосгорсуда, Роскомнадзора и рекламодателей:: rstracker[собака]yandex.ru
cron