Торрент файл
скачать торрент магнет ссылка Добавлен: 10 дек 2011, 00:02
Размер: 5.86 ГБ
Сидеров: 0
Личеров: 5
Автор

СообщениеДобавлено: 10 дек 2011, 00:02 

Не в сети
Супермодератор
Аватара пользователя
Дата регистрации:
11 апр 2010, 18:10
Спасибо: 5801 / 7
Сообщения: 56779
Нет мужчин - нет проблем / Without Men



Перевод: Профессиональный (многоголосый, закадровый)
Субтитры: Отсутствуют
Формат: DVD9, DVD Video, MPEG2, AC3
Страна: США
Режиссер: Габриела Тальявини
Жанр: комедия
Продолжительность: 01:23:06
Год выпуска: 2011

В ролях: Ева Лонгория, Кристиан Слэйтер, Оскар Нунез, Кейт дель Кастилло, Ивет Йэтс, Мария Кончита Алонсо, Гильермо Диас, Пол Родригез, Камрин Менхейм....

Описание: Американский военный корреспондент Гордон рыщет по Латинской Америке в поисках сенсаций. И удача улыбается ему! Журналист узнает, что в одном богом забытом городке всех мужчин в одночасье забрали в партизанскую армию. Теперь их женам, сестрам и дочерям под предводительством очаровательной Розальбы приходится строить новый мир — мир без мужчин. И Гордон отправляется к месту событий......

Рейтинг на IMDB: 2.7/10
Рейтинг на КиноПоиске: 3.208
Рейтинг на MPAA: R

Видео: 720x576 (PAL16:9), MPEG-2 Video, 25.000 fps, ~ 9000 kbps avg
Аудио #1: Русский: 48.0 kHz, АС3, 6 ch, ~ 256 Kbps avg [Профессиональный (многоголосый, закадровый)]
Аудио #2: Английский: 48.0 kHz, АС3, 6 ch, ~ 256 Kbps avg [Оригинал]

Семпл


    Meню озвученное,анимированное, на русском языке
    Смотрите на DVD

Формат: MPEG-PS
Размер файла: 1024 Мбайт
Продолжительность: 16 м.
Режим общего битрейта: Переменный
Общий поток: 8580 Кбит/сек

Видео
Идентификатор: 224 (0xE0)
Формат: MPEG Video
Версия формата: Version 2
Профиль формата: Main@Main
Параметр BVOP формата: Да
Параметр матрицы формата: Выборочная
Параметр GOP формата: M=3, N=15
Продолжительность: 16 м.
Вид битрейта: Переменный
Битрейт: 7897 Кбит/сек
Максимальный битрейт: 9000 Кбит/сек
Ширина: 720 пикселей
Высота: 576 пикселей
Соотношение сторон: 16:9
Частота кадров: 25,000 кадров/сек
Стандарт вещания: PAL
Цветовое пространство: YUV
Субдискретизация насыщенности: 4:2:0
Битовая глубина: 8 бит
Тип развёртки: Чересстрочная
Порядок развёртки: Верхнее поле первое
Метод сжатия: С потерями
Бит/(Пиксели*Кадры): 0.762
Размер потока: 943 Мбайт (92%)

Аудио #1
Идентификатор: 189 (0xBD)-128 (0x80)
Формат: AC-3
Формат/Информация: Audio Coding 3
Расширение режима: CM (complete main)
Режим смешивания: DVD-Video
Продолжительность: 16 м.
Вид битрейта: Постоянный
Битрейт: 256 Кбит/сек
Каналы: 6 каналов
Расположение каналов: Front: L C R, Side: L R, LFE
Частота: 48,0 КГц
Битовая глубина: 16 бит
Метод сжатия: С потерями
Размер потока: 30,5 Мбайт (3%)

Аудио #2
Идентификатор: 189 (0xBD)-129 (0x81)
Формат: AC-3
Формат/Информация: Audio Coding 3
Расширение режима: CM (complete main)
Режим смешивания: DVD-Video
Продолжительность: 16 м.
Вид битрейта: Постоянный
Битрейт: 256 Кбит/сек
Каналы: 6 каналов
Расположение каналов: Front: L C R, Side: L R, LFE
Частота: 48,0 КГц
Битовая глубина: 16 бит
Метод сжатия: С потерями
Размер потока: 30,5 Мбайт (3%)

Меню




















Поделиться:




реклама партнёра


Вернуться к началу
 Профиль Отправить личное сообщение  
 
   Похожие торренты   Автор   Торрент   Размер 
В этой теме нет новых непрочитанных сообщений. Нет мужчин - нет проблем / Without Men [Комедия, 2011] HDTV 1080i, Mvo

salma3

30 | 6

4.54 ГБ

В этой теме нет новых непрочитанных сообщений. Женщины против мужчин / Femmine contro maschi [Комедия, 2011] HDTVRip 1080p, Dvo

salma3

71 | 5

4.93 ГБ

В этой теме нет новых непрочитанных сообщений. Ёлки 3 [Комедия, 2013] DVD9 [Лицензия]

Dracon

2 | 3

6.18 ГБ

В этой теме нет новых непрочитанных сообщений. Собачий завтрак / A Dog's Breakfast [Комедия, 2007] DVD9, Dvo+Sub

salma3

13 | 3

6.57 ГБ

В этой теме нет новых непрочитанных сообщений. Друзья друзей [Комедия, 2013] DVD9 [Лицензия]

Dracon

10 | 3

4.81 ГБ

В этой теме нет новых непрочитанных сообщений. Мы – Миллеры / We're the Millers [Комедия, криминал, 2013] DVD9, Mvo+Avo+Sub

salma3

6 | 2

7.65 ГБ

В этой теме нет новых непрочитанных сообщений. Электрошок / Shocker [ужасы, триллер, комедия, 1989] DVD9, Mvo+Sub

salma3

4 | 1

5.45 ГБ


Начать новую тему Ответить на тему  [ 1 сообщение ] 




Для Мосгорсуда, Роскомнадзора и рекламодателей:: mosgorsud-torrent[собачка]yandex.ru