Торрент файл
скачать торрент магнет ссылка Добавлен: 10 дек 2011, 00:00
Размер: 4.37 ГБ
Сидеров: 4
Личеров: 5
Автор

СообщениеДобавлено: 10 дек 2011, 00:00 

Не в сети
Супермодератор
Аватара пользователя
Дата регистрации:
11 апр 2010, 18:10
Спасибо: 5801 / 7
Сообщения: 56779
Африканец / L'africain


Перевод: Профессиональный (полное дублирование)
Cубтитры: Русские
Формат: DVD5, DVD Video, MPEG2, AC3
Страна: Франция
Режиссер: Филипп де Брока
Жанр: Комедия, приключения
Продолжительность: 01:36:27
Год выпуска: 1983

В ролях: Катрин Денёв, Филипп Нуаре, Жан-Франсуа Бальме, Жак Франсуа, Жан Бенгиги, Жозеф Момо, Вивиан Рид, Пьер Микаэль, Гордон Хит, Рэймонд Акилон

Роли дублировали: Галина Чигинская,Владимир Трошин, Геннадий Богачёв, Александр Демьяненко, Кирилл Лавров

Описание: Фильм снят в экзотических местах Африки, куда прилетает героиня фильма, чтобы изучить возможность строительства отеля для туристов. Там она встречает своего мужа, летчика, охраняющего заповедник от браконьеров.Они расстались несколько лет назад, но так и не смогли забыть друг друга. Он делает все возможное, чтобы воспрепятствовать уничтожению этого нетронутого уголка природы. Нешуточное столкновение интересов, забавные приключения и настоящая опасность возрождают старую любовь с новой силой.

Рейтинг на КиноПоиск:7.165
Рейтинг на IMDB:5.9/10

Видео: 720x480, ( NTSC 4:3), MPEG2 Video,29,970 кадр/сек, ~ 8500 Кбит/сек
Аудио #1:Русский, 48,0 КГц, AC3, 6 канала(ов), ~384 Кбит/сек [Профессиональный (полное дублирование)]
Аудио #2:Русский, 48,0 КГц, AC3, 6 канала(ов), ~384 Кбит/сек [Профессиональный (многоголосый закадровый)]
Аудио #3:Французский, 48,0 КГц, AC3, 6 канала(ов), ~384 Кбит/сек [Оригинал]

Полное имя: I:\Фильмы DVD\Ихние\Африканец DVD-5\VIDEO_TS\VTS_01_1.VOB
Формат: MPEG-PS
Размер файла: 1024 Мбайт
Продолжительность: 23 м.
Общий поток: 6083 Кбит/сек
Видео
Идентификатор: 224 (0xE0)
Формат: MPEG Video
Версия формата: Version 2
Профиль формата: Main@Main
Параметр BVOP формата: Да
Параметр матрицы формата: По умолчанию
Параметры GOP формата: M=3, N=15
Продолжительность: 23 м.
Вид битрейта: Переменный
Битрейт: 4810 Кбит/сек
Номинальный битрейт: 8500 Кбит/сек
Ширина: 720 пикс.
Высота: 480 пикс.
Соотношение сторон: 4:3
Частота кадров: 29,970 кадр/сек
Стандарт вещания: NTSC
Цветовое пространство: YUV
Подвыборка цветности: 4:2:0
Битовая глубина: 8 бит
Тип развёртки: Чересстрочная
Порядок развёртки: Верхнее поле первое
Метод сжатия: С потерями
Бит/(Пиксели*Кадры): 0.464
Размер потока: 810 Мбайт (79%)
Аудио #1
Идентификатор: 128 (0x80)
Формат: AC-3
Формат/Информация: Audio Coding 3
Расширение режима: CM (complete main)
Продолжительность: 23 м.
Вид битрейта: Постоянный
Битрейт: 384 Кбит/сек
Канал(ы): 6 канала(ов)
Расположение каналов: Front: L C R, Side: L R, LFE
Частота: 48,0 КГц
Битовая глубина: 16 бит
Метод сжатия: С потерями
Задержка видео: -66 мс.
Размер потока: 64,6 Мбайт (6%)
Аудио #2
Идентификатор: 129 (0x81)
Формат: AC-3
Формат/Информация: Audio Coding 3
Расширение режима: CM (complete main)
Продолжительность: 23 м.
Вид битрейта: Постоянный
Битрейт: 384 Кбит/сек
Канал(ы): 6 канала(ов)
Расположение каналов: Front: L C R, Side: L R, LFE
Частота: 48,0 КГц
Битовая глубина: 16 бит
Метод сжатия: С потерями
Задержка видео: -66 мс.
Размер потока: 64,6 Мбайт (6%)
Аудио #3
Идентификатор: 130 (0x82)
Формат: AC-3
Формат/Информация: Audio Coding 3
Расширение режима: CM (complete main)
Продолжительность: 23 м.
Вид битрейта: Постоянный
Битрейт: 384 Кбит/сек
Канал(ы): 6 канала(ов)
Расположение каналов: Front: L C R, Side: L R, LFE
Частота: 48,0 КГц
Битовая глубина: 16 бит
Метод сжатия: С потерями
Задержка видео: -66 мс.
Размер потока: 64,6 Мбайт (6%)
Текст
Идентификатор: 32 (0x20)
Формат: RLE
Формат/Информация: Run-length encoding
Меню































Поделиться:




реклама партнёра


Вернуться к началу
 Профиль Отправить личное сообщение  
 
   Похожие торренты   Автор   Торрент   Размер 
В этой теме нет новых непрочитанных сообщений. Африканец / L'Africain [комедия, приключения, 1983] DVDRip-AVC, Dub

salma3

31 | 2

1.56 ГБ

В этой теме нет новых непрочитанных сообщений. Африканец / L'Africain [Приключения, комедия, 1983] BDRip 720p, Dub+2Mvo+Sub

salma3

31 | 5

7.28 ГБ

В этой теме нет новых непрочитанных сообщений. Африканец / L'Africain [Приключения, 1983] BDRip 1080p, Dub+2Mvo+Sub

salma3

28 | 6

9.47 ГБ

В этой теме нет новых непрочитанных сообщений. Полное превращение (Филипп Коршунов) [комедия, фантастика, 2015] DVD5 [Лицензия]

Dracon

788 | 188

3.94 ГБ

В этой теме нет новых непрочитанных сообщений. Мой наставник / My Tutor [Комедия, мелодрама, 1983] DVD5, Avo+Sub

salma3

0 | 4

4.16 ГБ

В этой теме нет новых непрочитанных сообщений. Белка и Стрелка: Лунные приключения [мультфильм, комедия, приключения, семейный, 2013] DVD5 [Лицензия]

Dracon

31 | 7

4.34 ГБ

В этой теме нет новых непрочитанных сообщений. Курьер из «Рая» [комедия, приключения, 2013] DVD5 [лицензия]

Dracon

68 | 6

3.73 ГБ


Начать новую тему Ответить на тему  [ 1 сообщение ] 




Для Мосгорсуда, Роскомнадзора и рекламодателей:: mosgorsud-torrent[собачка]yandex.ru