Торрент файл
скачать торрент магнет ссылка Добавлен: 10 дек 2011, 00:00
Размер: 4.36 ГБ
Сидеров: 1
Личеров: 5
Автор

СообщениеДобавлено: 10 дек 2011, 00:00 

Не в сети
Супермодератор
Аватара пользователя
Дата регистрации:
11 апр 2010, 18:10
Спасибо: 5801 / 7
Сообщения: 56779
Заклятие долины змей


Перевод: Не требуется
Cубтитры: отсутствуют
Формат: DVD5, DVD Video, MPEG2, AC3
Страна: СССР, Польша
Режиссер: Марек Пестрак
Жанр: Фантастика, приключения
Продолжительность: 01:39:41
Год выпуска: 1987

В ролях: Кшиштоф Кольбергер, Роман Вильгельми, Эва Салацка, Збигнев Лесень, Леон Немчик, Игор Пшегродский, Зигмунт Белявский, Хенрик Биста, Сергей Десницкий, Микк Микивер

Описание: Парижский антиквар Травен некогда выкрал из лаосского монастыря священную реликвию и манускрипт, гласивший, что в Долине Тысячи Змей хранится оружие, обладатель которого станет властелином мира. Проходит время, и Травен с польским ученым отправляются в экспедицию в Долину, не подозревая, что тайна манускрипта известна не только им…

Рейтинг на КиноПоиск:7.125
Рейтинг на IMDB:5.1/10

Видео: 720x576, (PAL 4:3), MPEG2 Video, 25,000 кадр/сек, ~ 6000 Кбит/сек
Аудио #1:Русский, 48,0 КГц, AC3, 6 канала(ов), ~448 Кбит/сек
Аудио #2:Русский, 48,0 КГц, AC3, 1 канала(ов), ~112 Кбит/сек

Полное имя: F:\Фильмы DVD\Заклятие Долины Змей DVD-5\VIDEO_TS\VTS_03_1.VOB
Формат: MPEG-PS
Размер файла: 1024 Мбайт
Продолжительность: 24 м.
Общий поток: 5783 Кбит/сек
Видео
Идентификатор: 224 (0xE0)
Формат: MPEG Video
Версия формата: Version 2
Профиль формата: Main@Main
Параметр BVOP формата: Да
Параметр матрицы формата: По умолчанию
Параметры GOP формата: M=2, N=4
Продолжительность: 24 м.
Вид битрейта: Постоянный
Битрейт: 5108 Кбит/сек
Номинальный битрейт: 6000 Кбит/сек
Ширина: 720 пикс.
Высота: 576 пикс.
Соотношение сторон: 4:3
Частота кадров: 25,000 кадр/сек
Стандарт вещания: PAL
Цветовое пространство: YUV
Подвыборка цветности: 4:2:0
Битовая глубина: 8 бит
Тип развёртки: Чересстрочная
Порядок развёртки: Верхнее поле первое
Метод сжатия: С потерями
Бит/(Пиксели*Кадры): 0.493
Размер потока: 904 Мбайт (88%)
Аудио #1
Идентификатор: 128 (0x80)
Формат: AC-3
Формат/Информация: Audio Coding 3
Расширение режима: CM (complete main)
Продолжительность: 24 м.
Вид битрейта: Постоянный
Битрейт: 448 Кбит/сек
Канал(ы): 6 канала(ов)
Расположение каналов: Front: L C R, Side: L R, LFE
Частота: 48,0 КГц
Битовая глубина: 16 бит
Метод сжатия: С потерями
Задержка видео: -40 мс.
Размер потока: 79,3 Мбайт (8%)
Аудио #2
Идентификатор: 129 (0x81)
Формат: AC-3
Формат/Информация: Audio Coding 3
Расширение режима: CM (complete main)
Продолжительность: 24 м.
Вид битрейта: Постоянный
Битрейт: 112 Кбит/сек
Канал(ы): 1 канал
Расположение каналов: Front: C
Частота: 48,0 КГц
Битовая глубина: 16 бит
Метод сжатия: С потерями
Задержка видео: -40 мс.
Размер потока: 19,8 Мбайт (2%)
Меню































Поделиться:




реклама партнёра


Вернуться к началу
 Профиль Отправить личное сообщение  
 
   Похожие торренты   Автор   Торрент   Размер 
В этой теме нет новых непрочитанных сообщений. Марсианин / The Martian [Фантастика, приключения, 2015] DVD5, Dub+Sub [Лицензия]

Dracon

278 | 42

4.37 ГБ

В этой теме нет новых непрочитанных сообщений. Интимные услуги / Personal Services [комедия, 1987] DVD5, Avo

salma3

2 | 6

4.07 ГБ

В этой теме нет новых непрочитанных сообщений. Потомственное проклятие / From a Whisper to a Scream / The Offspring [ужасы, 1987] DVD5, Avo+Sub

salma3

1 | 4

4.36 ГБ

В этой теме нет новых непрочитанных сообщений. Навстречу шторму / Into the Storm [фантастика, боевик, приключения, 2014] DVD5, Dub+Sub [Лицензия]

Dracon

51 | 10

4.37 ГБ

В этой теме нет новых непрочитанных сообщений. Гостья / The Host [фантастика, боевик, триллер, мелодрама, приключения, 2013] DVD5, Dub+Sub [Лицензия]

Dracon

28 | 4

4.37 ГБ

В этой теме нет новых непрочитанных сообщений. Бегущий в лабиринте / The Maze Runner [фантастика, триллер, приключения, 2014] DVD5, Dub+Sub [Лицензия]

Dracon

102 | 5

4.36 ГБ

В этой теме нет новых непрочитанных сообщений. Роботы / Bola Kampung: The Movie[мультфильм, фантастика, приключения, 2013] DVD5, Dub [лицензия]

Dracon

26 | 8

3.75 ГБ


Начать новую тему Ответить на тему  [ 1 сообщение ] 




Для Мосгорсуда, Роскомнадзора и рекламодателей:: mosgorsud-torrent[собачка]yandex.ru