Автор

СообщениеДобавлено: 09 дек 2011, 23:55 

Не в сети
Супермодератор
Аватара пользователя
Дата регистрации:
11 апр 2010, 18:10
Торренты: 56088
Раздал: 8.45 ТБ 
Скачал: 80.56 ГБ 
Ратио: 107.433
Спасибо: 5799 / 7
Сообщения: 56779
Досье Ипкресс / The Ipcress File



Перевод: Профессиональный (двухголосый)
Cубтитры: Русские
Формат: DVD5, DVD Video, MPEG2, AC3
Страна: Великобритания
Режиссер: Сидни Дж. Фьюри
Жанр: Триллер, криминал, детектив
Продолжительность: 01:47:14
Год выпуска: 1965

В ролях: Майкл Кейн, Найджел Грин, Гай Доулмен, Сью Ллойд, Гордон Джексон, Обри Ричардс, Фрэнк Гэтлиф, Томас Бэптист, Оливер МакГриви, Фреда Бэмфорд

Описание: Циничного армейского сержанта Палмера шантажируют и заставляют работать на британскую разведку. Цепь интриг, предательств, насилия и убийств.

Рейтинг на КиноПоиск:7.413
Рейтинг на IMDB:7.3/10

Видео: 720x480, ( NTSC 16:9), MPEG2 Video,29,970 кадр/сек, ~ 8700 Кбит/сек
Аудио #1: Английский, 48,0 КГц, AC3, 2 канала(ов), ~192 Кбит/сек [Оригинал]
Аудио #2: Русский, 48,0 КГц, AC3, 2 канала(ов), ~192 Кбит/сек [Профессиональный (двухголосый закадровый)]

Доп. информация: Первый фильм по романам Лена Дейтона о безымянном агенте английской разведки, который в экранизациях получил имя Гарри Палмера
Похороны в Берлине – 2-й фильм
Мозг ценой в миллиард долларов – 3-й фильм
Фильм входит в список "50 фильмов, которые нужно посмотреть, прежде чем умереть"

Полное имя: C:\Досье Ипкресс DVD-5\VIDEO_TS\VTS_04_1.VOB
Формат: MPEG-PS
Размер файла: 1024 Мбайт
Продолжительность: 24 м.
Общий поток: 5854 Кбит/сек
Видео
Идентификатор: 224 (0xE0)
Формат: MPEG Video
Версия формата: Version 2
Профиль формата: Main@Main
Параметр BVOP формата: Да
Параметр матрицы формата: По умолчанию
Продолжительность: 24 м.
Вид битрейта: Переменный
Битрейт: 5353 Кбит/сек
Номинальный битрейт: 8700 Кбит/сек
Ширина: 720 пикс.
Высота: 480 пикс.
Соотношение сторон: 16:9
Частота кадров: 29,970 кадр/сек
Стандарт вещания: NTSC
Цветовое пространство: YUV
Подвыборка цветности: 4:2:0
Битовая глубина: 8 бит
Метод сжатия: С потерями
Бит/(Пиксели*Кадры): 0.517
Размер потока: 936 Мбайт (91%)
Аудио #1
Идентификатор: 128 (0x80)
Формат: AC-3
Формат/Информация: Audio Coding 3
Расширение режима: CM (complete main)
Продолжительность: 24 м.
Вид битрейта: Постоянный
Битрейт: 192 Кбит/сек
Канал(ы): 2 канала(ов)
Расположение каналов: Front: L R
Частота: 48,0 КГц
Битовая глубина: 16 бит
Метод сжатия: С потерями
Задержка видео: -100 мс.
Размер потока: 33,6 Мбайт (3%)
Аудио #2
Идентификатор: 129 (0x81)
Формат: AC-3
Формат/Информация: Audio Coding 3
Расширение режима: CM (complete main)
Продолжительность: 24 м.
Вид битрейта: Постоянный
Битрейт: 192 Кбит/сек
Канал(ы): 2 канала(ов)
Расположение каналов: Front: L R
Частота: 48,0 КГц
Битовая глубина: 16 бит
Метод сжатия: С потерями
Задержка видео: -100 мс.
Размер потока: 33,6 Мбайт (3%)
Текст
Идентификатор: 32 (0x20)
Формат: RLE
Формат/Информация: Run-length encoding
Меню

Британская академия, 1966 год
Победитель (3):
• Лучшая работа оператора (цветные фильмы)
• Лучшая работа художника (цветные фильмы)
• Лучший британский фильм
Номинации (2):
• Лучший британский актер (Майкл Кейн)
• Лучший сценарий британского фильма
Каннский кинофестиваль, 1965 год
Номинации (1):
Золотая пальмовая ветвь































Поделиться:




реклама партнёра


Вернуться к началу
 Профиль Отправить личное сообщение  
 
   Похожие торренты   Автор   Торрент   Размер 
В этой теме нет новых непрочитанных сообщений. Имитатор / Copycat [триллер, драма, криминал, детектив, 1995] DVD5, Mvo+Sub

salma3

4 | 2

4.26 ГБ

В этой теме нет новых непрочитанных сообщений. Мистериум. Начало / Kvinden i Buret [триллер, криминал, детектив, 2013] DVD5, Mvo [Лицензия]

Dracon

191 | 7

3.44 ГБ

В этой теме нет новых непрочитанных сообщений. Черная роза / Black Rose [Детектив, триллер, криминал, 2014] DVD5 [Лицензия]

Dracon

63 | 8

4.29 ГБ

В этой теме нет новых непрочитанных сообщений. Убийца / Sicario [Боевик, триллер, драма, криминал, детектив, 2015] DVD5, Dub [iTunes]

salma3

78 | 15

4.03 ГБ

В этой теме нет новых непрочитанных сообщений. Перекрестный огонь / Bad Country [триллер, драма, детектив, боевик, криминал, 2014] DVD5, Mvo+Sub [Лицензия]

Dracon

22 | 5

3.85 ГБ

В этой теме нет новых непрочитанных сообщений. Байки из склепа / Tales from the Crypt [ужасы, фэнтези, триллер, комедия, криминал, детектив, 1989] DVD5, Avo

salma3

1 | 3

4.18 ГБ

В этой теме нет новых непрочитанных сообщений. Дело Тельмы Джордон / The File on Thelma Jordon [драма, криминал, детектив, 1950] BDRip, Dvo

salma3

2 | 1

1.46 ГБ


 [ 1 сообщение ] 




Для Мосгорсуда, Роскомнадзора и рекламодателей:: mosgorsud-torrent[собачка]yandex.ru