Торрент файл
скачать торрент магнет ссылка Добавлен: 09 дек 2011, 23:55
Размер: 3.95 ГБ
Сидеров: 1
Личеров: 4
Автор

СообщениеДобавлено: 09 дек 2011, 23:55 

Не в сети
Супермодератор
Аватара пользователя
Дата регистрации:
11 апр 2010, 18:10
Спасибо: 5799 / 7
Сообщения: 56779
Жена богача / The Rich Man's Wife


Перевод: Профессиональный (многоголосый, закадровый)
Cубтитры:Английские, французские, немецкие, русские (всего 9)
Формат: DVD5, DVD Video, MPEG2, AC3
Страна: США
Режиссер: Эми Холден Джонс
Жанр: Триллер
Продолжительность: 01:31:01
Год выпуска: 1996
В ролях: Холли Берри, Питер Грин, Клайв Оуэн, Фрэнки Фэйзон, Чарльз Хэллахан, Аллан Рич, Клеа Льюис, Кристофер МакДональд

Описание: В разговоре с незнакомцем Джози случайно обмолвилась о том, что она хотела бы видеть своего мужа мертвым. Но у слова есть таинственная власть изменять судьбы. Вскоре после этого ее «обожаемого» супруга убивают. И все улики указывают на нее. Вдова становится главной подозреваемой в кровавом убийстве. Но это — лишь начало кошмара, в который все глубже погружается жизнь женщины. За своей спиной она чувствует дыхание жестокого преследователя.

Рейтинг на КиноПоиск:7.350
Рейтинг MPAA:R
Рейтинг на IMDB:5.0/10

Видео: 720x576, ( PAL 16:9), MPEG2 Video, 25,000 кадр/сек, ~ 8200 Кбит/сек
Аудио #1: Английский, 48,0 КГц, AC3, 6 канала(ов), ~384 Кбит/сек [Оригинал]
Аудио #2: Французский, 48,0 КГц, AC3, 6 канала(ов), ~384 Кбит/сек
Аудио #3: Немецкий, 48,0 КГц, AC3, 6 канала(ов), ~384 Кбит/сек
Аудио #4: Русский, 48,0 КГц, AC3, 2 канала(ов), ~192 Кбит/сек [Профессиональный(многоголосый, закадровый)]


Полное имя: К:\Жена богача DVD-5\VIDEO_TS\VTS_01_1.VOB
Формат: MPEG-PS
Размер файла: 1024 Мбайт
Продолжительность: 23 м.
Общий поток: 5976 Кбит/сек
Видео
Идентификатор: 224 (0xE0)
Формат: MPEG Video
Версия формата: Version 2
Профиль формата: Main@Main
Параметр BVOP формата: Да
Параметр матрицы формата: По умолчанию
Параметры GOP формата: M=3, N=15
Продолжительность: 23 м.
Вид битрейта: Переменный
Битрейт: 4513 Кбит/сек
Номинальный битрейт: 8200 Кбит/сек
Ширина: 720 пикс.
Высота: 576 пикс.
Соотношение сторон: 16:9
Частота кадров: 25,000 кадр/сек
Стандарт вещания: PAL
Цветовое пространство: YUV
Подвыборка цветности: 4:2:0
Битовая глубина: 8 бит
Тип развёртки: Чересстрочная
Порядок развёртки: Верхнее поле первое
Метод сжатия: С потерями
Бит/(Пиксели*Кадры): 0.435
Размер потока: 773 Мбайт (76%)
Аудио #1
Идентификатор: 128 (0x80)
Формат: AC-3
Формат/Информация: Audio Coding 3
Расширение режима: CM (complete main)
Продолжительность: 23 м.
Вид битрейта: Постоянный
Битрейт: 384 Кбит/сек
Канал(ы): 6 канала(ов)
Расположение каналов: Front: L C R, Side: L R, LFE
Частота: 48,0 КГц
Битовая глубина: 16 бит
Метод сжатия: С потерями
Задержка видео: -80 мс.
Размер потока: 65,8 Мбайт (6%)
Аудио #2
Идентификатор: 129 (0x81)
Формат: AC-3
Формат/Информация: Audio Coding 3
Расширение режима: CM (complete main)
Продолжительность: 23 м.
Вид битрейта: Постоянный
Битрейт: 384 Кбит/сек
Канал(ы): 6 канала(ов)
Расположение каналов: Front: L C R, Side: L R, LFE
Частота: 48,0 КГц
Битовая глубина: 16 бит
Метод сжатия: С потерями
Задержка видео: -80 мс.
Размер потока: 65,8 Мбайт (6%)
Аудио #3
Идентификатор: 130 (0x82)
Формат: AC-3
Формат/Информация: Audio Coding 3
Расширение режима: CM (complete main)
Продолжительность: 23 м.
Вид битрейта: Постоянный
Битрейт: 384 Кбит/сек
Канал(ы): 6 канала(ов)
Расположение каналов: Front: L C R, Side: L R, LFE
Частота: 48,0 КГц
Битовая глубина: 16 бит
Метод сжатия: С потерями
Задержка видео: -80 мс.
Размер потока: 65,8 Мбайт (6%)
Аудио #4
Идентификатор: 131 (0x83)
Формат: AC-3
Формат/Информация: Audio Coding 3
Расширение режима: CM (complete main)
Продолжительность: 23 м.
Вид битрейта: Постоянный
Битрейт: 192 Кбит/сек
Канал(ы): 2 канала(ов)
Расположение каналов: Front: L R
Частота: 48,0 КГц
Битовая глубина: 16 бит
Метод сжатия: С потерями
Задержка видео: -80 мс.
Размер потока: 32,9 Мбайт (3%)
Текст #1
Идентификатор: 32 (0x20)
Формат: RLE
Формат/Информация: Run-length encoding
Текст #2
Идентификатор: 33 (0x21)
Формат: RLE
Формат/Информация: Run-length encoding
Текст #3
Идентификатор: 34 (0x22)
Формат: RLE
Формат/Информация: Run-length encoding
Текст #4
Идентификатор: 35 (0x23)
Формат: RLE
Формат/Информация: Run-length encoding
Текст #5
Идентификатор: 36 (0x24)
Формат: RLE
Формат/Информация: Run-length encoding
Текст #6
Идентификатор: 37 (0x25)
Формат: RLE
Формат/Информация: Run-length encoding
Текст #7
Идентификатор: 38 (0x26)
Формат: RLE
Формат/Информация: Run-length encoding
Текст #8
Идентификатор: 39 (0x27)
Формат: RLE
Формат/Информация: Run-length encoding
Текст #9
Идентификатор: 40 (0x28)
Формат: RLE
Формат/Информация: Run-length encoding
Меню

































Поделиться:




реклама партнёра


Вернуться к началу
 Профиль Отправить личное сообщение  
 
   Похожие торренты   Автор   Торрент   Размер 
В этой теме нет новых непрочитанных сообщений. Трофейная Жена / Третья Жена / Trophy Wife [S01] [Комедия, 2013-2014] WEB-DLRip, Mvo [Fox Life]

salma3

56 | 21

5.29 ГБ

В этой теме нет новых непрочитанных сообщений. Жена астронавта / The Astronaut's Wife [Фантастика, триллер, ужасы, 1999] BDRip 1080p, Dub+Mvo+Sub

salma3

9 | 6

13.71 ГБ

В этой теме нет новых непрочитанных сообщений. Саботаж / Sabotage [боевик, триллер, драма, 1996] DVD5, Mvo

salma3

8 | 5

3.83 ГБ

В этой теме нет новых непрочитанных сообщений. Hot Wife / Горячая Жена (2016) WEB-DL

amadei

2 | 1

1.93 ГБ

В этой теме нет новых непрочитанных сообщений. I Have A Wife 39 / У Меня Есть Жена 39 (2016) WEB-DL

amadei

2 | 2

1.45 ГБ

В этой теме нет новых непрочитанных сообщений. Жена мясника / The Butcher's Wife [фэнтези, комедия, 1991] HDTVRip, Mvo

salma3

149 | 17

1.45 ГБ

В этой теме нет новых непрочитанных сообщений. Жена мясника / The Butcher's Wife [фэнтези, комедия, 1991] WEB-DL 720p, Mvo

salma3

51 | 11

3.84 ГБ


Начать новую тему Ответить на тему  [ 1 сообщение ] 




Для Мосгорсуда, Роскомнадзора и рекламодателей:: mosgorsud-torrent[собачка]yandex.ru