Торрент файл
скачать торрент магнет ссылка Добавлен: 09 дек 2011, 23:53
Размер: 3.47 ГБ
Сидеров: 0
Личеров: 4
Автор

СообщениеДобавлено: 09 дек 2011, 23:53 

Не в сети
Супермодератор
Аватара пользователя
Дата регистрации:
11 апр 2010, 18:10
Спасибо: 5799 / 7
Сообщения: 56779
Дела и больше ничего / Только бизнес / Strictly Business


Перевод: Авторский (одноголосый)(Андрей Гаврилов)
Субтитры: отсутствуют
Формат: DVD5, DVD Video, MPEG2, AC3
Страна: США
Режиссер: Кевин Хукс, Роландо Хадсон
Жанр: Мелодрама, комедия
Продолжительность: 01:22:52
Год выпуска: 1991
В ролях: Томми Дэвидсон, Джозеф С. Филлипс, Энн-Мари Джонсон, Дэвид Маршалл, Грант Джон Сайфер, Сэмюэл Л. Джексон, Холли Берр,и Ким Коулз, Пол Батлер, Джеймс МакДэниэл

Описание: Бобби работает посыльным в большой фирме по продаже недвижимости. Его лучший друг Вэймон, что называется "белый" афро-американец, почти уже партнер этой же фирмы. Они договариваются о том, что Вэймон устраивает Бобби в некую крутую программу обучения брокерству, а Бобби в свою очередь устраивает Вэймону свидание с Натали - девушкой мечты Вэймона

Рейтинг на КиноПоиск:5.500
РейтингMPAA:PG-13
Рейтинг на IMDB:5.0/10

Видео: 720x480, ( NTSC16:9), MPEG2 Video, 23,976 кадр/сек, ~ 7500 Кбит/сек
Аудио #1:Английский, 48,0 КГц, AC3, 2 канала(ов), ~192 Кбит/сек [Оригинал]
Аудио #2:Русский, 48,0 КГц, AC3, 2 канала(ов), ~192 Кбит/сек [Авторский (одноголосый)(Андрей Гаврилов)]


Полное имя: I:\Фильмы DVD\Ихние\Дела и больше ничего DVD-5\VIDEO_TS\VTS_01_1.VOB
Формат: MPEG-PS
Размер файла: 1024 Мбайт
Продолжительность: 23 м.
Общий поток: 6057 Кбит/сек
Видео
Идентификатор: 224 (0xE0)
Формат: MPEG Video
Версия формата: Version 2
Профиль формата: Main@Main
Параметр BVOP формата: Да
Параметр матрицы формата: По умолчанию
Параметры GOP формата: M=3, N=12
Продолжительность: 23 м.
Вид битрейта: Переменный
Битрейт: 5553 Кбит/сек
Номинальный битрейт: 7500 Кбит/сек
Ширина: 720 пикс.
Высота: 480 пикс.
Соотношение сторон: 16:9
Частота кадров: 23,976 кадр/сек
Стандарт вещания: NTSC
Цветовое пространство: YUV
Подвыборка цветности: 4:2:0
Битовая глубина: 8 бит
Тип развёртки: Прогрессивная
Порядок развёртки: 2:3 Pulldown
Метод сжатия: С потерями
Бит/(Пиксели*Кадры): 0.670
Размер потока: 939 Мбайт (92%)
Аудио #1
Идентификатор: 128 (0x80)
Формат: AC-3
Формат/Информация: Audio Coding 3
Профиль формата: Dolby Digital
Расширение режима: CM (complete main)
Продолжительность: 23 м.
Вид битрейта: Постоянный
Битрейт: 192 Кбит/сек
Канал(ы): 2 канала(ов)
Расположение каналов: Front: L R
Частота: 48,0 КГц
Битовая глубина: 16 бит
Метод сжатия: С потерями
Задержка видео: -83 мс.
Размер потока: 32,5 Мбайт (3%)
Аудио #2
Идентификатор: 129 (0x81)
Формат: AC-3
Формат/Информация: Audio Coding 3
Профиль формата: Dolby Digital
Расширение режима: CM (complete main)
Продолжительность: 23 м.
Вид битрейта: Постоянный
Битрейт: 192 Кбит/сек
Канал(ы): 2 канала(ов)
Расположение каналов: Front: L R
Частота: 48,0 КГц
Битовая глубина: 16 бит
Метод сжатия: С потерями
Задержка видео: -83 мс.
Размер потока: 32,5 Мбайт (3%)
Меню

























Поделиться:




реклама партнёра


Вернуться к началу
 Профиль Отправить личное сообщение  
 
   Похожие торренты   Автор   Торрент   Размер 
В этой теме нет новых непрочитанных сообщений. Напролом / The Hard Way [Боевик, комедия, криминал, 1991] DVD5, Mvo+Dvo+Avo+Sub

salma3

8 | 2

4.3 ГБ

В этой теме нет новых непрочитанных сообщений. Левиафан (Андрей Звягинцев) [Драма, 2014] DVD5

Dracon

5 | 3

4.31 ГБ

В этой теме нет новых непрочитанных сообщений. Из 13 в 30 / 13 Going on 30 [Комедия, мелодрама, 2004] DVD5, Mvo

salma3

7 | 0

4.33 ГБ

В этой теме нет новых непрочитанных сообщений. Дороги (Андрей Гаврилов) [драма, криминал, 2015] WEBRip

Dracon

782 | 91

743.94 МБ

В этой теме нет новых непрочитанных сообщений. Мой наставник / My Tutor [Комедия, мелодрама, 1983] DVD5, Avo+Sub

salma3

0 | 4

4.16 ГБ

В этой теме нет новых непрочитанных сообщений. Четверг, 12-e [Комедия, мелодрама, 2012] DVD5 [Лицензия]

Dracon

113 | 22

3.54 ГБ

В этой теме нет новых непрочитанных сообщений. А вот и она / And So It Goes [Драма, мелодрама, Комедия, 2014] DVD5, Dub [Лицензия]

Dracon

32 | 3

3.96 ГБ


Начать новую тему Ответить на тему  [ 1 сообщение ] 




Для Мосгорсуда, Роскомнадзора и рекламодателей:: mosgorsud-torrent[собачка]yandex.ru