COVID-19 - Последняя информация о коронавирусе на сайте Минздрава




Торрент файл
скачать торрент магнет ссылка Добавлен: 09 дек 2011, 23:53
Размер: 4.31 ГБ
Сидеров: 0
Личеров: 5
Автор

СообщениеДобавлено: 09 дек 2011, 23:53 

Не в сети
Супермодератор
Аватара пользователя
Дата регистрации:
11 апр 2010, 18:10
Спасибо: 6059 / 7
Сообщения: 56660
Свидетель на свадьбе / The Best Man



Перевод: Профессиональный (полное дублирование)
Субтитры: Отсутсвуют
Формат: DVD5, DVD Video, MPEG2, AC3
Страна: США, Германия, Великобритания, Венгрия
Режиссер: Стефан Шварц
Жанр: мелодрама, комедия
Продолжительность: 01:31:37
Год выпуска: 2005

В ролях: Сет Грин, Эми Смарт, Стюарт Таунсенд, Джордж Мендел, Кайли Миноуг, Джейн Хау, Кейт Эшфилд, Стив Джон Шеперд, Анна Чэнселлор, Джоди Мэй, Мат Хауманн, Раймонд Култхард, Мартин Хэнкок, Стюарт Райт, Дэвид Ойелово, Юдит Виктор, Мэтт Девере, Лили Бордан, Джанин Вуд, Лукач Бичкей

Описание: Олли — писатель-неудачник, имеющий самую посредственную работу для человека своего круга. Казалось бы, его жизнь уже лишена всякого смысла… Но однажды случай меняет все… Раздается неожиданный звонок от друга по колледжу Джеймса с просьбой стать свидетелем на его свадьбе. И, конечно же, Олли влюбляется с первого взгляда в красавицу-невесту, в будущую жену своего лучшего друга. Всячески пытаясь сдержать свои чувства к Саре, главный герой постепенно понимает, что его лучший друг — вовсе не тот мужчина, который заслуживает любви такой прекрасной девушки. А что, если жених и свидетель поменяются местами?…

Рейтинг КиноПоиск.RU: 7.125
Рейтинг MPAA: R
Рейтинг на IMDB: 6.0

Видео: 720x576 (PAL 16:9), 25,000 fps, MPEG-2 Video ~8488 kbps avg
Аудио #1: Русский: 48 kHz, AC3 Dolby Digital, 6 ch, ~ 384kbps avg [Профессиональный (полное дублирование)]
Аудио #2: Английский: 48 kHz, AC3 Dolby Digital, 2 ch, ~ 192kbps avg [Оригинал]

Доп.информация:
Meню озвученное, статичное, на русском языке, с навигацией по эпизодам. Все кнопки функциональны.
Убраны: все дополнительные материалы, реклама, предупреждающие надписи и лишние кнопки, 2 русские аудио дороги (DTS 6 ch,AC3 2 ch)
DVD-RB PRO при помощи ССЕ сжат диск ~ 37,4% (5 проходов)

Слоган: «Он был готов на всё... ради девушки своей мечты»


Общее
Полное имя: D:\свидетель на свадьбе DVD-5\VIDEO_TS\VTS_02_1.VOB
Формат: MPEG-PS
Размер файла: 1024 Мбайт
Продолжительность: 29 м.
Режим общего битрейта: Переменный
Общий поток: 4937 Кбит/сек

Видео
Идентификатор: 224 (0xE0)
Формат: MPEG Video
Версия формата: Version 2
Профиль формата: Main@Main
Параметр BVOP формата: Да
Параметр матрицы формата: Выборочная
Продолжительность: 29 м.
Вид битрейта: Переменный
Битрейт: 4262 Кбит/сек
Максимальный битрейт: 8488 Кбит/сек
Ширина: 720 пикселей
Высота: 576 пикселей
Соотношение сторон: 16:9
Частота кадров: 25,000 кадров/сек
Стандарт вещания: PAL
Цветовое пространство: YUV
Субдискретизация насыщенности: 4:2:0
Битовая глубина: 8 бит
Тип развёртки: Чересстрочная
Порядок развёртки: Нижнее поле первое
Метод сжатия: С потерями
Бит/(Пиксели*Кадры): 0.411
Размер потока: 884 Мбайт (86%)

Аудио #1
Идентификатор: 189 (0xBD)-128 (0x80)
Формат: AC-3
Формат/Информация: Audio Coding 3
Расширение режима: CM (complete main)
Режим смешивания: DVD-Video
Продолжительность: 28 м.
Вид битрейта: Постоянный
Битрейт: 384 Кбит/сек
Каналы: 6 каналов
Расположение каналов: Front: L C R, Side: L R, LFE
Частота: 48,0 КГц
Битовая глубина: 16 бит
Метод сжатия: С потерями
Размер потока: 79,6 Мбайт (8%)

Аудио #2
Идентификатор: 189 (0xBD)-130 (0x82)
Формат: AC-3
Формат/Информация: Audio Coding 3
Расширение режима: CM (complete main)
Режим смешивания: DVD-Video
Продолжительность: 28 м.
Вид битрейта: Постоянный
Битрейт: 192 Кбит/сек
Каналы: 2 канала
Расположение каналов: Front: L R
Частота: 48,0 КГц
Битовая глубина: 16 бит
Метод сжатия: С потерями
Размер потока: 39,8 Мбайт (4%)






















Поделиться:



Скачать книги и аудио книги через торрент


Вернуться к началу
 Профиль Отправить личное сообщение  
 
   Похожие торренты   Автор   Торрент   Размер 
В этой теме нет новых непрочитанных сообщений. Человек-паук: Возвращение домой / Spider-Man: Homecoming [Фантастика, боевик, приключения, 2017] DVD5, Dub

salma3

14 | 6

4.35 ГБ

В этой теме нет новых непрочитанных сообщений. Логово зверя / Haunt [ужасы, мелодрама, детектив, 2014] DVD5, Dub [Лицензия]

salma3

0 | 0

3.88 ГБ

В этой теме нет новых непрочитанных сообщений. Пальметто / Palmetto [триллер, драма, мелодрама, криминал, детектив, 1998] DVD5, Dub

K15

0 | 0

4.04 ГБ

В этой теме нет новых непрочитанных сообщений. Плетеный человек / The Wicker Man [ужасы, триллер, драма, 1973] DVD5, Mvo

salma3

0 | 0

4.14 ГБ

В этой теме нет новых непрочитанных сообщений. Она - мужчина / She's the Man [мелодрама, комедия, 2006] WEB-DL 1080p, Dub

salma3

5 | 15

4.05 ГБ

В этой теме нет новых непрочитанных сообщений. Шазам! / Shazam! [Фэнтези, боевик, комедия, приключения, 2019] DVD5, Dub [Custom]

K15

0 | 0

4.36 ГБ

В этой теме нет новых непрочитанных сообщений. 8 подруг Оушена / Ocean's Eight [боевик, триллер, комедия, криминал, 2018] DVD5, Dub [Лицензия]

K15

0 | 0

4.38 ГБ


Начать новую тему Ответить на тему  [ 1 сообщение ] 




Для Мосгорсуда, Роскомнадзора и рекламодателей:: rstracker[собака]yandex.ru
cron