COVID-19 - Последняя информация о коронавирусе на сайте Минздрава




Торрент файл
скачать торрент магнет ссылка Добавлен: 09 дек 2011, 23:52
Размер: 4.21 ГБ
Сидеров: 0
Личеров: 7
Автор

СообщениеДобавлено: 09 дек 2011, 23:52 

Не в сети
Супермодератор
Аватара пользователя
Дата регистрации:
11 апр 2010, 18:10
Спасибо: 6059 / 7
Сообщения: 56660
Без правил / No Holds Barred



Перевод: Профессиональный (многоголосый, закадровый)
Субтитры: Отсутствуют
Формат: DVD5, DVD Video, MPEG2, AC3
Страна: США
Режиссер: Томас Дж. Райт
Жанр: Боевик
Продолжительность: 01:32:39
Год выпуска: 1989

В ролях: Халк Хоган, Джоан Северанс, Курт Фуллер, Том ’Тайни’ Листер мл. Марк Пеллегрино, Билл Хендерсон, Чарльз Левин, Дэвид Пэймер, Патрик О’Брайан, Джесси Вентура

Описание: Суперзвезде — королю сцены делает выгодное предложение конкурентная ТВ-сеть. Оставаясь до конца преданным своей работе, он отказывается от него, чем и вызывает гнев конкурентов, пытающихся ставить палки в колеса, чтобы лишить короля экрана заслуженного трона.

Рейтинг на КиноПоиск:5.730
Рейтинг MPAA :PG-13
Рейтинг на IMDB:3.7/10

Видео: 720x576, (PAL 4:3), MPEG2 Video, 25,000 кадр/сек, ~ 8000 Кбит/сек
Аудио #1: Русский, 48,0 КГц, AC3, 6 канала(ов), ~384 Кбит/сек [Профессиональный (многоголосый закадровый)]
Аудио #2: Английский, 48,0 КГц, AC3, 6 канала(ов), ~384 Кбит/сек [Оригинал]

Доп. информация: Качество картинки посредственное, но другого DVD не встречал.

Полное имя: К:\No Holds Barred\VIDEO_TS\VTS_02_1.VOB
Формат: MPEG-PS
Размер файла: 1024 Мбайт
Продолжительность: 21 м.
Общий поток: 6570 Кбит/сек
Видео
Идентификатор: 224 (0xE0)
Формат: MPEG Video
Версия формата: Version 2
Профиль формата: Main@Main
Параметр BVOP формата: Да
Параметр матрицы формата: По умолчанию
Продолжительность: 21 м.
Вид битрейта: Переменный
Битрейт: 5671 Кбит/сек
Номинальный битрейт: 8000 Кбит/сек
Ширина: 720 пикс.
Высота: 576 пикс.
Соотношение сторон: 4:3
Частота кадров: 25,000 кадр/сек
Стандарт вещания: PAL
Цветовое пространство: YUV
Подвыборка цветности: 4:2:0
Битовая глубина: 8 бит
Тип развёртки: Чересстрочная
Порядок развёртки: Нижнее поле первое
Метод сжатия: С потерями
Бит/(Пиксели*Кадры): 0.547
Размер потока: 884 Мбайт (86%)
Аудио #1
Идентификатор: 128 (0x80)
Формат: AC-3
Формат/Информация: Audio Coding 3
Расширение режима: CM (complete main)
Продолжительность: 21 м.
Вид битрейта: Постоянный
Битрейт: 384 Кбит/сек
Канал(ы): 6 канала(ов)
Расположение каналов: Front: L C R, Side: L R, LFE
Частота: 48,0 КГц
Битовая глубина: 16 бит
Метод сжатия: С потерями
Размер потока: 59,8 Мбайт (6%)
Аудио #2
Идентификатор: 129 (0x81)
Формат: AC-3
Формат/Информация: Audio Coding 3
Расширение режима: CM (complete main)
Продолжительность: 21 м.
Вид битрейта: Постоянный
Битрейт: 384 Кбит/сек
Канал(ы): 6 канала(ов)
Расположение каналов: Front: L C R, Side: L R, LFE
Частота: 48,0 КГц
Битовая глубина: 16 бит
Метод сжатия: С потерями
Размер потока: 59,8 Мбайт (6%)
Меню
























Поделиться:



Скачать книги и аудио книги через торрент


Вернуться к началу
 Профиль Отправить личное сообщение  
 
   Похожие торренты   Автор   Торрент   Размер 
В этой теме нет новых непрочитанных сообщений. Майя / Maya [ужасы, 1989] DVD5, Avo

salma3

0 | 0

3.99 ГБ

В этой теме нет новых непрочитанных сообщений. Полицейский-психопат / Psycho Cop [ужасы, 1989] DVD5, Avo

salma3

0 | 0

3.27 ГБ

В этой теме нет новых непрочитанных сообщений. Маска демона / La maschera del demonio [ужасы, 1989] DVD5, Avo

salma3

0 | 1

4.37 ГБ

В этой теме нет новых непрочитанных сообщений. Авария / Breakdown [боевик, драма, триллер, 1997] DVD5, Mvo

K15

0 | 0

4.31 ГБ

В этой теме нет новых непрочитанных сообщений. Очень важная персона / V.I.P. [боевик, драма, криминал, 1991] DVD5, Mvo

salma3

10 | 4

4.3 ГБ

В этой теме нет новых непрочитанных сообщений. Автомобиль-беглец / Runaway Car [боевик, триллер, драма, 1996] DVD5, Mvo [ЕА]

K15

0 | 0

3.89 ГБ

В этой теме нет новых непрочитанных сообщений. Опасный Бангкок / Bangkok Dangerous [боевик, триллер, мелодрама, 2000] DVD5, Mvo

salma3

0 | 0

4.34 ГБ


Начать новую тему Ответить на тему  [ 1 сообщение ] 




Для Мосгорсуда, Роскомнадзора и рекламодателей:: rstracker[собака]yandex.ru
cron