COVID-19 - Последняя информация о коронавирусе на сайте Минздрава




Торрент файл
скачать торрент магнет ссылка Добавлен: 09 дек 2011, 23:52
Размер: 4.23 ГБ
Сидеров: 1
Личеров: 8
Автор

СообщениеДобавлено: 09 дек 2011, 23:52 

Не в сети
Супермодератор
Аватара пользователя
Дата регистрации:
11 апр 2010, 18:10
Спасибо: 6059 / 7
Сообщения: 56660
Арлетт / Arlette



Перевод: Профессиональный (многоголосый, закадровый)
Cубтитры:Русские
Формат: DVD5, DVD Video, MPEG2, AC3
Страна: Франция
Режиссер: Клод Зиди
Жанр: Мелодрама, комедия, криминал
Продолжительность: 01:34:49
Год выпуска: 1997

В ролях: Жозиан Баласко, Кристофер Ламберт, Эннио Фантастичини, Стефан Одран, Жан-Мари Бигар, Армель, Мартен Ламотт, Жан-Пьер Кастальди,Жан-Клод Буллон

Описание: Арлетт живет обычной провинциальной жизнью, без приключений и неожиданностей. Она не подозревает, что из-за наследства умершего отца, владельца крупнейших казино, она стала лакомым кусочком. Воротилы игорного бизнеса решают не упустить деньги и выдать Арлетт замуж за своего человека. Наша золушка расцветает благодаря изысканным ухаживаниям очаровательного посланца. Ее естественное и в то же время эксцентричное поведение также не оставляет его равнодушным. Чья любовь сильнее?

Рейтинг на КиноПоиск:7.051
Рейтинг на IMDB:4.6/10

Видео: 720x576, (PAL 4:3), MPEG2 Video, 25,000 кадр/сек, ~ 8900 Кбит/сек
Аудио #1: Русский, 48,0 КГц, AC3, 3 канала(ов), ~384 Кбит/сек [Профессиональный (многоголосый закадровый)]
Аудио #2: Французский, 48,0 КГц, AC3, 3 канала(ов), ~384 Кбит/сек [Оригинал]


Полное имя: I:\Фильмы DVD\Ихние\Арлетт DVD-5\VIDEO_TS\VTS_01_1.VOB
Формат: MPEG-PS
Размер файла: 1024 Мбайт
Продолжительность: 19 м.
Общий поток: 7257 Кбит/сек
Видео
Идентификатор: 224 (0xE0)
Формат: MPEG Video
Версия формата: Version 2
Профиль формата: Main@Main
Параметр BVOP формата: Да
Параметр матрицы формата: По умолчанию
Параметры GOP формата: M=2, N=11
Продолжительность: 19 м.
Вид битрейта: Переменный
Битрейт: 6345 Кбит/сек
Номинальный битрейт: 8900 Кбит/сек
Ширина: 720 пикс.
Высота: 576 пикс.
Соотношение сторон: 4:3
Частота кадров: 25,000 кадр/сек
Стандарт вещания: PAL
Цветовое пространство: YUV
Подвыборка цветности: 4:2:0
Битовая глубина: 8 бит
Тип развёртки: Чересстрочная
Порядок развёртки: Верхнее поле первое
Метод сжатия: С потерями
Бит/(Пиксели*Кадры): 0.612
Размер потока: 895 Мбайт (87%)
Аудио #1
Идентификатор: 128 (0x80)
Формат: AC-3
Формат/Информация: Audio Coding 3
Расширение режима: CM (complete main)
Продолжительность: 19 м.
Вид битрейта: Постоянный
Битрейт: 384 Кбит/сек
Канал(ы): 3 канала(ов)
Расположение каналов: Front: L R, LFE
Частота: 48,0 КГц
Битовая глубина: 16 бит
Метод сжатия: С потерями
Размер потока: 54,2 Мбайт (5%)
Аудио #2
Идентификатор: 129 (0x81)
Формат: AC-3
Формат/Информация: Audio Coding 3
Расширение режима: CM (complete main)
Продолжительность: 19 м.
Вид битрейта: Постоянный
Битрейт: 384 Кбит/сек
Канал(ы): 3 канала(ов)
Расположение каналов: Front: L R, LFE
Частота: 48,0 КГц
Битовая глубина: 16 бит
Метод сжатия: С потерями
Размер потока: 54,2 Мбайт (5%)
Текст
Идентификатор: 32 (0x20)
Формат: RLE
Формат/Информация: Run-length encoding
Меню


























Поделиться:



Скачать книги и аудио книги через торрент


Вернуться к началу
 Профиль Отправить личное сообщение  
 
   Похожие торренты   Автор   Торрент   Размер 
В этой теме нет новых непрочитанных сообщений. На краю могилы / Gravesend [драма, криминал, 1997] DVD5, Avo

K15

0 | 0

3.7 ГБ

В этой теме нет новых непрочитанных сообщений. Авария / Breakdown [боевик, драма, триллер, 1997] DVD5, Mvo

K15

0 | 0

4.31 ГБ

В этой теме нет новых непрочитанных сообщений. Надувательство / Shooting Fish [мелодрама, комедия, криминал, 1997] WEBRip 1080p, Mvo

salma3

11 | 2

6.97 ГБ

В этой теме нет новых непрочитанных сообщений. Лишний багаж / Excess Baggage [мелодрама, комедия, криминал, 1997] BDRip, Mvo

salma3

0 | 0

1.47 ГБ

В этой теме нет новых непрочитанных сообщений. Пальметто / Palmetto [триллер, драма, мелодрама, криминал, детектив, 1998] DVD5, Dub

K15

0 | 0

4.04 ГБ

В этой теме нет новых непрочитанных сообщений. Рай / Paradise [мелодрама, приключения, 1982] DVD5, Mvo

K15

0 | 0

4.15 ГБ

В этой теме нет новых непрочитанных сообщений. Очень важная персона / V.I.P. [боевик, драма, криминал, 1991] DVD5, Mvo

salma3

10 | 4

4.3 ГБ


Начать новую тему Ответить на тему  [ 1 сообщение ] 




Для Мосгорсуда, Роскомнадзора и рекламодателей:: rstracker[собака]yandex.ru
cron