Торрент файл
скачать торрент магнет ссылка Добавлен: 09 дек 2011, 23:52
Размер: 4.19 ГБ
Сидеров: 0
Личеров: 10
Автор

СообщениеДобавлено: 09 дек 2011, 23:52 

Не в сети
Супермодератор
Аватара пользователя
Дата регистрации:
11 апр 2010, 18:10
Спасибо: 5799 / 7
Сообщения: 56779
Ах! Эти прекрасные вакханки / Ah! Les belles bacchantes



Перевод: Профессиональный (многоголосый, закадровый)
Субтитры: Отсутствуют
Формат: DVD5, DVD Video, MPEG2, AC3
Страна: Франция, Италия
Режиссер: Жан Лубиньяк
Жанр: Мюзикл, комедия
Продолжительность: 01:32:52
Год выпуска: 1954

В ролях: Робер Дери, Колетт Броссе, Луи Де Фюнес, Раймон Бюссьер, Роже Качча, Жаклин Майян, Франсис Бланш, Жак Бове, Жак Жуанно, Жак Легра, Роджер Сагет

Описание: Комиссар полиции Лебеф очень консервативен, и поэтому его не может не волновать падение нравов во Франции. Узнав о готовящейся премьере шоу «Ах! Эти прекрасные вакханки», Лебеф отправляется в театр-варьете, чтобы выяснить, не скрывается ли за этим подозрительным названием некое непристойное действо. Главный режиссер театра, поверив в придуманную историю о скрывающемся в труппе преступнике, разрешает Лебефу участвовать в репетиции. Подозрения комиссара подтверждаются — шоу действительно более чем откровенно с точки зрения морали. Полуодетые манекенщицы сменяются почти нагими танцовщицами, один номер фривольнее другого. Но постепенно репетиция настолько захватывает Лебефа, что к концу ее от консервативности комиссара не остается и следа. Порок комиссару не по зубам!

Рейтинг на КиноПоиск:5.278
Рейтинг на IMDB:5.0/10

Видео: 720x576, (PAL 4:3), MPEG2 Video, 25,000 кадр/сек, ~ 8000 Кбит/сек
Аудио: Русский, 48,0 КГц, AC3, 2 канала(ов), ~192 Кбит/сек [Профессиональный (многоголосый закадровый)]


Полное имя: К:\Вакханки\VIDEO_TS\VTS_01_1.VOB
Формат: MPEG-PS
Размер файла: 1024 Мбайт
Продолжительность: 21 м.
Общий поток: 6589 Кбит/сек
Видео
Идентификатор: 224 (0xE0)
Формат: MPEG Video
Версия формата: Version 2
Профиль формата: Main@Main
Параметр BVOP формата: Да
Параметр матрицы формата: По умолчанию
Параметры GOP формата: M=3, N=15
Продолжительность: 21 м.
Вид битрейта: Постоянный
Битрейт: 6265 Кбит/сек
Номинальный битрейт: 8000 Кбит/сек
Ширина: 720 пикс.
Высота: 576 пикс.
Соотношение сторон: 4:3
Частота кадров: 25,000 кадр/сек
Стандарт вещания: PAL
Цветовое пространство: YUV
Подвыборка цветности: 4:2:0
Битовая глубина: 8 бит
Тип развёртки: Прогрессивная
Метод сжатия: С потерями
Бит/(Пиксели*Кадры): 0.604
Размер потока: 973 Мбайт (95%)
Аудио
Идентификатор: 128 (0x80)
Формат: AC-3
Формат/Информация: Audio Coding 3
Расширение режима: CM (complete main)
Продолжительность: 21 м.
Вид битрейта: Постоянный
Битрейт: 192 Кбит/сек
Канал(ы): 2 канала(ов)
Расположение каналов: Front: L R
Частота: 48,0 КГц
Битовая глубина: 16 бит
Метод сжатия: С потерями
Размер потока: 29,8 Мбайт (3%)
Меню






























Поделиться:




реклама партнёра


Вернуться к началу
 Профиль Отправить личное сообщение  
 
   Похожие торренты   Автор   Торрент   Размер 
В этой теме нет новых непрочитанных сообщений. Светлое Рождество / White Christmas [Мюзикл, мелодрама, комедия, 1954] BDRip 1080p, Dvo

salma3

10 | 7

8.7 ГБ

В этой теме нет новых непрочитанных сообщений. Спасти Санту / Saving Santa [мультфильм, мюзикл, комедия, семейный, 2013] DVD5, Dub [Лицензия]

Dracon

6 | 4

4.13 ГБ

В этой теме нет новых непрочитанных сообщений. Ромео и Джульетта / Romeo and Juliet: A Love Song [мюзикл, драма, 2013] DVD5, Dub

Dracon

9 | 5

4.37 ГБ

В этой теме нет новых непрочитанных сообщений. Оз: Возвращение в Изумрудный Город / Legends of Oz: Dorothy's Return [мультфильм, мюзикл, семейный, 2013] DVD5, Dub+Sub [лицензия]

Dracon

82 | 30

4.03 ГБ

В этой теме нет новых непрочитанных сообщений. Образцовые семьи / Belles familles [Комедия, драма, 2015] HDRip, Dub [iTunes]

salma3

2993 | 253

1.46 ГБ

В этой теме нет новых непрочитанных сообщений. Образцовые семьи / Belles familles [Комедия, драма, 2015] BDRip 720p, Dub [iTunes]

salma3

215 | 58

5.77 ГБ

В этой теме нет новых непрочитанных сообщений. Из 13 в 30 / 13 Going on 30 [Комедия, мелодрама, 2004] DVD5, Mvo

salma3

7 | 0

4.33 ГБ


Начать новую тему Ответить на тему  [ 1 сообщение ] 




Для Мосгорсуда, Роскомнадзора и рекламодателей:: mosgorsud-torrent[собачка]yandex.ru