Торрент файл
скачать торрент магнет ссылка Добавлен: 24 ноя 2011, 17:40
Размер: 4.31 ГБ
Сидеров: 4
Личеров: 7
Статус: (Dracon)
Автор

СообщениеДобавлено: 24 ноя 2011, 17:40 

Не в сети
Зам. Админа
Аватара пользователя
Дата регистрации:
02 дек 2010, 12:39
Спасибо: 12461 / 214
Сообщения: 27968
«Величайшее открытие человечества может стать последним»


Год выхода: 2011
Страна: США, Канада
Студия: Morgan Creek Productions, Strike Entertainment
Жанр:Ужасы, Фантастика, Триллер, Детектив
Режиссер: Маттис ван Хейниген мл.
В ролях:Мэри Элизабет Уинстэд, Джоэл Эдгертон, Ульрих Томсен, Эрик Кристиан Олсен, Адевале Акиннуойе-Агбадже, Пол Браунштейн, Тронд Эспен Сейм, Ким Баббс, Ёрген Лангхелле, Ян Гуннар Рёйсе

О фильме: Научная экспедиция обнаруживает в Антарктике потерпевший крушение инопланетный космический корабль. Группа отчаянных учёных проникает в его недра и неожиданно для самих себя открывает ящик Пандоры. Среди непроходимых снегов и ледяных гор, выпущенное на свободу Нечто устраивает на исследовательской станции жуткую бойню.




Файл
Меню: Русское, статичное, озвученное
Качество: DVD5 (Сжатый) R5
Видео: PAL 16:9 (720x576) 5 745 Kbps
Аудио: Russian (Dolby AC3, 6 ch) 448 Kbps
Продолжительность: 01:38:50
Перевод: Профессиональный (дублированный) [Лицензия]


General
Complete name : D:_VideoNechto.2011.DVD-5.DRGVIDEO_TSVTS_04_1.VOB
Format : MPEG-PS
File size : 1 024 MiB
Duration : 22mn 39s
Overall bit rate mode : Variable
Overall bit rate : 6 319 Kbps

Video
ID : 224 (0xE0)
Format : MPEG Video
Format version : Version 2
Format profile : Main@Main
Format settings, BVOP : Yes
Format settings, Matrix : Custom
Duration : 22mn 39s
Bit rate mode : Variable
Bit rate : 5 745 Kbps
Maximum bit rate : 8 027 Kbps
Width : 720 pixels
Height : 576 pixels
Display aspect ratio : 16:9
Frame rate : 25.000 fps
Standard : PAL
Color space : YUV
Chroma subsampling : 4:2:0
Bit depth : 8 bits
Scan type : Progressive
Scan order : Bottom Field First
Compression mode : Lossy
Bits/(Pixel*Frame) : 0.554
Stream size : 931 MiB (91%)

Audio
ID : 189 (0xBD)-128 (0x80)
Format : AC-3
Format/Info : Audio Coding 3
Mode extension : CM (complete main)
Muxing mode : DVD-Video
Duration : 22mn 39s
Bit rate mode : Constant
Bit rate : 448 Kbps
Channel(s) : 6 channels
Channel positions : Front: L C R, Side: L R, LFE
Sampling rate : 48.0 KHz
Bit depth : 16 bits
Compression mode : Lossy
Stream size : 72.6 MiB (7%)

Menu

Title: Bob
Size: 4.31 Gb ( 4 519 434 KBytes ) - DVD-5
Enabled regions: 1, 2, 3, 4, 5, 6, 7, 8

VTS_01 :
Play Length:
Video: PAL 4:3 (720x576) VBR
Subtitles:
English
English

VTS_02 :
Play Length:
Video: PAL 16:9 (720x576) VBR, Auto Pan&Scan
Subtitles:
Not specified

VTS_03 :
Play Length:
Video: PAL 16:9 (720x576) VBR, Auto Pan&Scan
Audio:
Not specified (Dolby AC3, 2 ch)
Not specified (Dolby AC3, 2 ch)
Subtitles:
Not specified

VTS_04 :
Play Length: 01:38:50
Video: PAL 16:9 (720x576) VBR, Auto Pan&Scan
Audio:
Russian (Dolby AC3, 6 ch)
Russian (DTS, 5 ch)

VTS_05 :
Play Length:
Video: PAL 16:9 (720x576) VBR, Auto Pan&Scan
Audio:
Not specified (Dolby AC3, 2 ch)
Subtitles:
Not specified

VTS_06 :
Play Length:
Video: PAL 16:9 (720x576) VBR, Auto Pan&Scan
Audio:
Not specified (Dolby AC3, 2 ch)
Subtitles:
Not specified

VTS_07 :
Play Length:
Video: PAL 16:9 (720x576) VBR, Auto Pan&Scan
Audio:
Not specified (Dolby AC3, 2 ch)
Subtitles:
Not specified

VTS_08 :
Play Length:
Video: PAL 16:9 (720x576) VBR, Auto Pan&Scan
Audio:
Not specified (Dolby AC3, 2 ch)
Subtitles:
Not specified

VTS_09 :
Play Length:
Video: PAL 16:9 (720x576) VBR, Auto Pan&Scan
Audio:
Not specified (Dolby AC3, 2 ch)
Subtitles:
Not specified

VTS_10 :
Play Length:
Video: PAL 16:9 (720x576) VBR, Auto Pan&Scan
Audio:
Not specified (Dolby AC3, 2 ch)
Subtitles:
Not specified

VTS_11 :
Play Length:
Video: PAL 4:3 (720x576) VBR
Audio:
Not specified (Dolby AC3, 2 ch)
Subtitles:
Not specified





реклама партнёра


Вернуться к началу
 Профиль  
 
   Похожие торренты   Автор   Торрент   Размер 
В этой теме нет новых непрочитанных сообщений. Нечто / The Thing [ужасы, фантастика, триллер, детектив, 2011] BDRip, Avo [Гаврилов]

salma3

134 | 14

1.45 ГБ

В этой теме нет новых непрочитанных сообщений. Нечто / Озеро / The Lake [фантастика, триллер, детектив, 1998] SATRip, Dvo

salma3

38 | 5

1.37 ГБ

В этой теме нет новых непрочитанных сообщений. Тварь из бездны / The Thing Below [Ужасы, фантастика, триллер, 2004] DVDRip, Mvo

salma3

99 | 19

1.37 ГБ

В этой теме нет новых непрочитанных сообщений. Прелесть, в доме живущая / I Am the Pretty Thing That Lives in the House [триллер, ужасы, детектив, 2016] WEB-DLRip, Mvo

salma3

162 | 69

1.12 ГБ

В этой теме нет новых непрочитанных сообщений. Нечто из другого мира / Something Is Out There [ужасы, фантастика, 1988] SATRip, Dvo

salma3

62 | 3

1.3 ГБ

В этой теме нет новых непрочитанных сообщений. Каждая секретная вещь / Every Secret Thing [Триллер, драма, криминал, детектив, 2014] WEB-DL 720р, Avo

salma3

148 | 11

3.09 ГБ

В этой теме нет новых непрочитанных сообщений. Пункт назначения: Коллекция / Final Destination: The Collection [Ужасы, фантастика, триллер, детектив, 2000-2011] BDRip

vitalikmd

42 | 10

10.6 ГБ


СообщениеДобавлено: 24 ноя 2011, 20:08 

Не в сети
Зам. Админа
Аватара пользователя
Дата регистрации:
02 дек 2010, 12:39
Спасибо: 12461 / 214
Сообщения: 27968
Стоящее кино говорят...надо посмотреть на это стоящее...


Вернуться к началу
 Профиль  
 

СообщениеДобавлено: 24 ноя 2011, 21:18 

Не в сети
Супермодератор
Аватара пользователя
Дата регистрации:
11 апр 2010, 18:10
Спасибо: 5802 / 7
Сообщения: 56779
Посмотрим).


Вернуться к началу
 Профиль Отправить личное сообщение  
 

СообщениеДобавлено: 24 ноя 2011, 22:38 

Не в сети
Супермодератор
Аватара пользователя
Дата регистрации:
11 апр 2010, 18:10
Спасибо: 5802 / 7
Сообщения: 56779
Пипец...посмотрел примерно мин. 50, не выдержал. Фильм по мне наиполнейшее говно, из разряда ТВ3.


Вернуться к началу
 Профиль Отправить личное сообщение  
 

СообщениеДобавлено: 25 ноя 2011, 10:15 

Не в сети
Зам. Админа
Аватара пользователя
Дата регистрации:
02 дек 2010, 12:39
Спасибо: 12461 / 214
Сообщения: 27968
Ужасы?-нет...Страшно?-нет...Жутко?-нет...И как обычно в таких фильмах нет концовки...


Вернуться к началу
 Профиль  
 
Начать новую тему Ответить на тему  [ Сообщений: 5 ] 




Для Мосгорсуда, Роскомнадзора и рекламодателей:: mosgorsud-torrent[собачка]yandex.ru