Оценка торрента
5 0%  0%  [ 0 ]
4 0%  0%  [ 0 ]
3 0%  0%  [ 0 ]
2 0%  0%  [ 0 ]
1 0%  0%  [ 0 ]
5 0%  0%  [ 0 ]
4 0%  0%  [ 0 ]
3 0%  0%  [ 0 ]
2 0%  0%  [ 0 ]
1 0%  0%  [ 0 ]
Всего голосов : 0
Торрент файл
скачать торрент магнет ссылка Добавлен: 01 сен 2011, 11:47
Размер: 4.36 ГБ
Сидеров: 1
Личеров: 3
Автор

СообщениеДобавлено: 01 сен 2011, 11:47 

Не в сети
Зам. Админа
Аватара пользователя
Дата регистрации:
02 дек 2010, 12:39
Спасибо: 12461 / 214
Сообщения: 27968


Год выхода: 2010
Жанр:ужасы
Режиссер: Алекс Оруэлл
В ролях: Александра Стаден, Виктор МакГуайр, Адам Рэйнер, Антония Кэмпбелл-Хьюджес, Эшли Мулрон, Амара Каран, Том Пэйн, Марк Пикеринг, Тексас Бэттл, Сэм Стокман

О фильме:

Новое реалити-шоу под названием «Задание» вынуждает шестерых молодых участников выполнять квесты, находясь на территории заброшенной тюрьмы. Понятно, что за большой денежный выигрыш они вскоре будут готовы перегрызть друг другу глотки прямо в прямом эфире, чем искусно пользуется неизвестный, устроивший им ночь ТВ-террора…



Выпущено: США / After Dark Films
Продолжительность: 01:30:42
Озвучивание: Профессиональное (многоголосое) [лицензия]

Файл

Общее
Полное имя : //Zadanie.2010.P.DVDVIDEO_TSVTS_03_1.VOB
Формат : MPEG-PS
Размер файла : 1024 Мбайт
Продолжительность : 20 м.
Общий поток : 7005 Кбит/сек

Видео
Идентификатор : 224 (0xE0)
Формат : MPEG Video
Версия формата : Version 2
Профиль формата : Main@Main
Параметр BVOP формата : Да
Параметр матрицы формата : По умолчанию
Параметры GOP формата : M=3, N=15
Продолжительность : 20 м.
Вид битрейта : Переменный
Битрейт : 6482 Кбит/сек
Ширина : 720 пикс.
Высота : 576 пикс.
Соотношение сторон : 16:9
Частота кадров : 25,000 кадр/сек
Стандарт вещания : PAL
Цветовое пространство : YUV
Подвыборка цветности : 4:2:0
Битовая глубина : 8 бит
Тип развёртки : Прогрессивная
Метод сжатия : С потерями
Бит/(Пиксели*Кадры) : 0.625
Размер потока : 947 Мбайт (93%)

Аудио
Идентификатор : 189 (0xBD)-128 (0x80)
Формат : AC-3
Формат/Информация : Audio Coding 3
Расширение режима : CM (complete main)
Режим смешивания : DVD-Video
Продолжительность : 20 м.
Вид битрейта : Постоянный
Битрейт : 384 Кбит/сек
Каналы : 6 каналов
Расположение каналов : Front: L C R, Side: L R, LFE
Частота : 48,0 КГц
Битовая глубина : 16 бит
Метод сжатия : С потерями
Размер потока : 56,1 Мбайт (5%)

Текст
Идентификатор : 189 (0xBD)-32 (0x20)
Формат : RLE
Формат/Информация : Run-length encoding
Режим смешивания : DVD-Video

Меню




Формат: DVD Video
Качество: DVD R5
Видео: PAL 16:9 (720x576@1024x576)
Аудио: Russian (Dolby AC3, 6 ch)
Субтитры: Ukrainian
Дополнительно: нет

Релиз группы:





реклама партнёра


Вернуться к началу
 Профиль  
 
   Похожие торренты   Автор   Торрент   Размер 
В этой теме нет новых непрочитанных сообщений. Мифика: Задание для героев / Mythica: A Quest for Heroes [фэнтези, 2015] BDRip, Avo

salma3

1557 | 128

1.46 ГБ

В этой теме нет новых непрочитанных сообщений. Мифика: Задание для героев / Mythica: A Quest for Heroes [Фэнтези, 2015] BDRemux 1080p, Mvo

salma3

154 | 36

14.55 ГБ

В этой теме нет новых непрочитанных сообщений. Мифика: Задание для героев / Mythica: A Quest for Heroes (Энн К. Блэк) [Фэнтези, 2015] HDRip, Mvo

Dracon

47 | 5

1.45 ГБ

В этой теме нет новых непрочитанных сообщений. Мифика: Задание для героев / Mythica: A Quest for Heroes (Энн К. Блэк) [2015, фэнтези, BDRip 720p] avo

Nickolas3435

551 | 25

2.99 ГБ

В этой теме нет новых непрочитанных сообщений. Ужасы Лох - Несса / Beyond Loch Ness [ужасы, фантастика, 2008] DVD5, Dvo

salma3

21 | 3

3.93 ГБ

В этой теме нет новых непрочитанных сообщений. Сталин: случай в Самаре ("Особо важное задание") Алексей Меняйлов

vairgin

0 | 3

121.16 МБ

В этой теме нет новых непрочитанных сообщений. Эксперимент: Зло / The Quiet Ones [Ужасы, 2014] DVD5, Dub [Лицензия]

Dracon

67 | 8

4.1 ГБ


Начать новую тему Ответить на тему  [ 1 сообщение ] 




Для Мосгорсуда, Роскомнадзора и рекламодателей:: mosgorsud-torrent[собачка]yandex.ru