COVID-19 - Последняя информация о коронавирусе на сайте Минздрава




Торрент файл
скачать торрент магнет ссылка Добавлен: 10 ноя 2019, 12:31
Размер: 8.64 ГБ
Сидеров: 0
Личеров: 0
Статус: (salma3)
Автор

СообщениеДобавлено: 10 ноя 2019, 12:31 

Не в сети
Супермодератор
Аватара пользователя
Дата регистрации:
15 фев 2012, 16:44
Возраст: 31
Спасибо: 8273 / 2148
Сообщения: 96473
Год выпуска: 2019
Производство: США
Жанр: Фантастика, боевик, приключения
Режиссер: Энтони Руссо, Джо Руссо

Актеры: Роберт Дауни мл., Крис Эванс, Марк Руффало, Крис Хемсворт, Скарлетт Йоханссон, Джереми Реннер, Дон Чидл, Пол Радд, Бри Ларсон, Карен Гиллан

Описание:
Оставшиеся в живых члены команды Мстителей и их союзники должны разработать новый план, который поможет противостоять разрушительным действиям могущественного титана Таноса. После наиболее масштабной и трагической битвы в истории они не могут допустить ошибку.

Перевод: Дублированный [iTunes]
Субтитры: Русские (full, forced), английские

Дата мировой премьеры: 22 апреля 2019
Дата российской премьеры: 29 апреля 2019, «WDSSPR»


Продолжительность: 01:32:32+01:21:14
Качество видео: 2xDVD5 [BD -> DVD]

Видео: MPEG-2, 720x576@1024x576 (PAL 16:9), ~6100 Кбит/сек
Аудио 1: AC3 5.1, 384 Кбит/сек [Русский - дублированный]
Аудио 2: AC3 5.1, 384 Кбит/сек [Английский - оригинал]

Title: Disc 1
Size: 4.36 Gb ( 4 570 270,00 KBytes ) - DVD-5
Enabled regions: 1, 2, 3, 4, 5, 6, 7, 8

VTS_01 :
Play Length: 01:32:32
Video: PAL 16:9 (720x576) VBR, Auto Letterboxed
Audio:
Russian, AC3, 3/2 (L,C,R,SL,SR)+LFE ch, 384 kbps, Delay 0 mSec
English, AC3, 3/2 (L,C,R,SL,SR)+LFE ch, 384 kbps, Delay 0 mSec
Subtitles:
Russian
English
Russian
Title: Disc 2
Size: 4.28 Gb ( 4 485 570,00 KBytes ) - DVD-5
Enabled regions: 1, 2, 3, 4, 5, 6, 7, 8

VTS_01 :
Play Length: 01:21:14
Video: PAL 16:9 (720x576) VBR, Auto Letterboxed
Audio:
Russian, AC3, 3/2 (L,C,R,SL,SR)+LFE ch, 384 kbps, Delay 0 mSec
English, AC3, 3/2 (L,C,R,SL,SR)+LFE ch, 384 kbps, Delay 0 mSec
Subtitles:
Russian
English
Russian

Общее
Полное имя : V:TorrentsAvengers. Endgame (2019) 2xDVD5 [BD-DVD]Disc 1VIDEO_TSVTS_01_3.VOB
Формат : MPEG-PS
Размер файла : 1024 Мбайт
Продолжительность : 19 м. 26 с.
Режим общего битрейта : Переменный
Общий поток : 7362 Кбит/сек

Видео
Идентификатор : 224 (0xE0)
Формат : MPEG Video
Версия формата : Version 2
Профиль формата : Main@Main
Настройки формата : CustomMatrix / BVOP
Параметр BVOP формата : Да
Параметр матрицы формата : Выборочная
Параметр GOP формата : M=3, N=15
Продолжительность : 19 м. 26 с.
Вид битрейта : Переменный
Битрейт : 6448 Кбит/сек
Максимальный битрейт : 9000 Кбит/сек
Ширина : 720 пикселей
Высота : 576 пикселей
Соотношение сторон : 16:9
Частота кадров : 25,000 кадров/сек
Стандарт вещания : PAL
Цветовое пространство : YUV
Субдискретизация насыщенности : 4:2:0
Битовая глубина : 8 бит
Тип развёртки : Прогрессивная
Метод сжатия : С потерями
Бит/(Пиксели*Кадры) : 0.622
Временной код первого кадра : 00:46:40:18
Оригинал временного кода : Group of pictures header
Размер потока : 896 Мбайт (88%)

Аудио #1
Идентификатор : 189 (0xBD)-128 (0x80)
Формат : AC-3
Формат/Информация : Audio Coding 3
Параметр Endianness формата : Big
Режим смешивания : DVD-Video
Продолжительность : 19 м. 26 с.
Вид битрейта : Постоянный
Битрейт : 384 Кбит/сек
Каналы : 6 каналов
Расположение каналов : Front: L C R, Side: L R, LFE
Частота : 48,0 КГц
Частота кадров : 31,250 кадров/сек (1536 SPF)
Битовая глубина : 16 бит
Метод сжатия : С потерями
Задержка видео : -608 мс.
Размер потока : 53,4 Мбайт (5%)
ServiceKind : Complete Main

Аудио #2
Идентификатор : 189 (0xBD)-129 (0x81)
Формат : AC-3
Формат/Информация : Audio Coding 3
Параметр Endianness формата : Big
Режим смешивания : DVD-Video
Продолжительность : 19 м. 26 с.
Вид битрейта : Постоянный
Битрейт : 384 Кбит/сек
Каналы : 6 каналов
Расположение каналов : Front: L C R, Side: L R, LFE
Частота : 48,0 КГц
Частота кадров : 31,250 кадров/сек (1536 SPF)
Битовая глубина : 16 бит
Метод сжатия : С потерями
Задержка видео : -640 мс.
Размер потока : 53,4 Мбайт (5%)
ServiceKind : Complete Main

Текст #1
Идентификатор : 189 (0xBD)-32 (0x20)
Формат : RLE
Формат/Информация : Run-length encoding
Режим смешивания : DVD-Video

Текст #2
Идентификатор : 189 (0xBD)-33 (0x21)
Формат : RLE
Формат/Информация : Run-length encoding
Режим смешивания : DVD-Video

Меню
Общее
Полное имя : V:TorrentsAvengers. Endgame (2019) 2xDVD5 [BD-DVD]Disc 2VIDEO_TSVTS_01_2.VOB
Формат : MPEG-PS
Размер файла : 1024 Мбайт
Продолжительность : 19 м. 13 с.
Режим общего битрейта : Переменный
Общий поток : 7448 Кбит/сек

Видео
Идентификатор : 224 (0xE0)
Формат : MPEG Video
Версия формата : Version 2
Профиль формата : Main@Main
Настройки формата : CustomMatrix / BVOP
Параметр BVOP формата : Да
Параметр матрицы формата : Выборочная
Параметр GOP формата : Variable
Продолжительность : 19 м. 12 с.
Вид битрейта : Переменный
Битрейт : 6532 Кбит/сек
Максимальный битрейт : 9000 Кбит/сек
Ширина : 720 пикселей
Высота : 576 пикселей
Соотношение сторон : 16:9
Частота кадров : 25,000 кадров/сек
Стандарт вещания : PAL
Цветовое пространство : YUV
Субдискретизация насыщенности : 4:2:0
Битовая глубина : 8 бит
Тип развёртки : Прогрессивная
Метод сжатия : С потерями
Бит/(Пиксели*Кадры) : 0.630
Временной код первого кадра : 01:54:01:18
Оригинал временного кода : Group of pictures header
Размер потока : 898 Мбайт (88%)

Аудио #1
Идентификатор : 189 (0xBD)-128 (0x80)
Формат : AC-3
Формат/Информация : Audio Coding 3
Параметр Endianness формата : Big
Режим смешивания : DVD-Video
Продолжительность : 19 м. 13 с.
Вид битрейта : Постоянный
Битрейт : 384 Кбит/сек
Каналы : 6 каналов
Расположение каналов : Front: L C R, Side: L R, LFE
Частота : 48,0 КГц
Частота кадров : 31,250 кадров/сек (1536 SPF)
Битовая глубина : 16 бит
Метод сжатия : С потерями
Задержка видео : -584 мс.
Размер потока : 52,8 Мбайт (5%)
ServiceKind : Complete Main

Аудио #2
Идентификатор : 189 (0xBD)-129 (0x81)
Формат : AC-3
Формат/Информация : Audio Coding 3
Параметр Endianness формата : Big
Режим смешивания : DVD-Video
Продолжительность : 19 м. 13 с.
Вид битрейта : Постоянный
Битрейт : 384 Кбит/сек
Каналы : 6 каналов
Расположение каналов : Front: L C R, Side: L R, LFE
Частота : 48,0 КГц
Частота кадров : 31,250 кадров/сек (1536 SPF)
Битовая глубина : 16 бит
Метод сжатия : С потерями
Задержка видео : -584 мс.
Размер потока : 52,8 Мбайт (5%)
ServiceKind : Complete Main

Текст #1
Идентификатор : 189 (0xBD)-32 (0x20)
Формат : RLE
Формат/Информация : Run-length encoding
Режим смешивания : DVD-Video
Задержка видео : 1 с. 360 мс.

Текст #2
Идентификатор : 189 (0xBD)-33 (0x21)
Формат : RLE
Формат/Информация : Run-length encoding
Режим смешивания : DVD-Video
Задержка видео : 1 с. 280 мс.

Меню

Источником видео, звуковых дорог, субтитров и глав послужил BDRemux. Часть DVD меню взял отсюда, так как меню похоже с Войной бесконечности некоторые элементы меню ещё взял с этого релиза. Видео обрабатывалось с помощью CarbonCoder в VBR два прохода в прогрессив. Звуковые дорожки обрабатывались в UsEac3To и потом собирал .wav в AC3 pro с помощью Sony Vegas. Субтитры сделал в DVD-lab PRO 2. DVD диск разрабатывал в программах Adobe Encore, Photoshop, DVDRemake Pro и MuxMan.






_________________
Проголосуй за трекер Открытый торрент трекер - RUS-MEDIA.ORG

Проголосуй Открытый торрент трекер - RUS-MEDIA.ORG


Скачать книги и аудио книги через торрент


Вернуться к началу
 Профиль Отправить личное сообщение  
 
   Похожие торренты   Автор   Торрент   Размер 
В этой теме нет новых непрочитанных сообщений. Мстители: Финал / Avengers: Endgame [Фантастика, боевик, приключения, 2019] DVD9, Dub [iTunes]

salma3

0 | 0

7.61 ГБ

В этой теме нет новых непрочитанных сообщений. Мстители: Финал / Avengers: Endgame [Фантастика, боевик, приключения, 2019] BDRip-HEVC 720p, Dub [iTunes]

salma3

1 | 2

4.48 ГБ

В этой теме нет новых непрочитанных сообщений. Мстители: Финал / Avengers: Endgame [Фантастика, боевик, приключения, 2019] HybridRip 720p, Dub [iTunes] [Open Matte]

salma3

0 | 0

10.17 ГБ

В этой теме нет новых непрочитанных сообщений. Мстители: Финал / Avengers: Endgame [Фантастика, боевик, приключения, 2019] WEBRip-HEVC 720p, Dub [iTunes] [Open Matte] [Локализованная версия]

salma3

0 | 0

4.25 ГБ

В этой теме нет новых непрочитанных сообщений. Мстители: Финал / Avengers: Endgame [Фантастика, фэнтези, боевик, 2019] HDRip, Dub [iTunes]

salma3

0 | 0

2.18 ГБ

В этой теме нет новых непрочитанных сообщений. Мстители: Финал / Avengers: Endgame [Фантастика, фэнтези, боевик, 2019] HDRip, Dub [iTunes]

salma3

26 | 14

1.46 ГБ

В этой теме нет новых непрочитанных сообщений. Мстители: Финал / Avengers: Endgame [Фантастика, фэнтези, боевик, 2019] HDRip-AVC, Dub [iTunes]

salma3

1 | 4

2.18 ГБ


Начать новую тему Ответить на тему  [ 1 сообщение ] 




Для Мосгорсуда, Роскомнадзора и рекламодателей:: rstracker[собака]yandex.ru
cron