COVID-19 - Последняя информация о коронавирусе на сайте Минздрава




Торрент файл
скачать торрент магнет ссылка Добавлен: 08 ноя 2019, 21:12
Размер: 7.61 ГБ
Сидеров: 0
Личеров: 0
Статус: (salma3)
Автор

СообщениеДобавлено: 08 ноя 2019, 21:12 

Не в сети
Супермодератор
Аватара пользователя
Дата регистрации:
15 фев 2012, 16:44
Возраст: 30
Спасибо: 8263 / 2148
Сообщения: 96287
Год выпуска: 2019
Производство: США, Великобритания, Канада
Жанр: Фантастика, боевик, приключения
Режиссер: Энтони Руссо, Джо Руссо

Продюсеры: Кевин Файги, Виктория Алонсо, Митчелл Белл
Актеры: Роберт Дауни мл., Крис Эванс, Марк Руффало, Крис Хемсворт, Скарлетт Йоханссон, Джереми Реннер, Дон Чидл, Пол Радд, Бри Ларсон, Карен Гиллан

Описание:
Оставшиеся в живых члены команды Мстителей и их союзники должны разработать новый план, который поможет противостоять разрушительным действиям могущественного титана Таноса. После наиболее масштабной и трагической битвы в истории они не могут допустить ошибку.

Перевод: Дублированный [iTunes] + Профессиональный многоголосый (HDRezka Studio)
Субтитры: Английские, русские (full, forced)

Дата мировой премьеры: 22 апреля 2019
Дата российской премьеры: 29 апреля 2019, «WDSSPR»


Продолжительность: 02:53:46
Качество видео: DVD9

Видео: MPEG-2, 720x576@1024x576 (PAL 16:9), ~5500 Кбит/сек
Аудио 1: AC3 5.1, 384 Кбит/сек [Английский - оригинал]
Аудио 2: AC3 5.1, 384 Кбит/сек [Русский - дублированный]
Аудио 3: AC3 2.0, 192 Кбит/сек [Русский - многоголосый]

Доп. материалы: Нет
Title: Avengers. Endgame (2019) DVD9 PAL
Size: 7.61 Gb ( 7 979 216,00 KBytes ) - DVD-9
Enabled regions: 1, 2, 3, 4, 5, 6, 7, 8

VTS_01 :
Play Length: 00:00:00+{00:00:00}+{00:00:00}
Video: PAL 16:9 (720x576) VBR, Auto Letterboxed
Audio:
Not specified (Dolby AC3, 6 ch)
Not specified (Dolby AC3, 6 ch)
Not specified (Dolby AC3, 6 ch)
Not specified (Dolby AC3, 6 ch)
Not specified (Dolby AC3, 6 ch)
Subtitles:
Not specified
Not specified
Not specified
Not specified
Not specified
Not specified
Not specified
Not specified
Not specified
Not specified

VTS_02 :
Play Length: 00:00:00+{00:00:00}+{00:00:00}+{00:00:00}+{00:00:00}+{00:00:00}
Video: PAL 16:9 (720x576) VBR, Auto Letterboxed

VTS_03 :
Play Length: 00:00:00+{00:00:00}+{00:00:00}
Video: PAL 16:9 (720x576) VBR, Auto Letterboxed

VTS_04 :
Play Length: 00:00:38
Video: PAL 16:9 (720x576) VBR, Auto Letterboxed
Audio:
English (Dolby AC3, 6 ch)

VTS_05 :
Play Length: 00:00:00
Video: PAL 4:3 (720x576) VBR

VTS_06 :
Play Length: 00:00:00
Video: PAL 16:9 (720x576) VBR, Auto Letterboxed

VTS_07 :
Play Length: 00:00:00+{00:00:00}+{00:00:00}+{00:00:00}+{00:00:00}+{00:00:00}
Video: PAL 16:9 (720x576) VBR, Auto Letterboxed

VTS_08 :
Play Length: 00:00:00+{00:00:00}
Video: PAL 16:9 (720x576) VBR, Auto Letterboxed

VTS_09 :
Play Length: 00:00:00
Video: PAL 16:9 (720x576) VBR, Auto Letterboxed

VTS_10 :
Play Length: 02:53:46+00:00:02+{00:00:00}+{00:00:00}+{00:00:00}
Video: PAL 16:9 (720x576) VBR, Auto Letterboxed
Audio:
English, AC3, 3/2 (L,C,R,SL,SR)+LFE ch, 384 kbps, Delay 0 mSec
Russian, AC3, 3/2 (L,C,R,SL,SR)+LFE ch, 384 kbps, Delay 0 mSec
Russian, AC3, 2/0 (L,R) ch, 192 kbps, Delay 0 mSec
Subtitles:
English
Russian
Russian
Russian
Общее
Полное имя : V:TorrentsAvengers. Endgame (2019) DVD9 PALVIDEO_TSVTS_10_1.VOB
Формат : MPEG-PS
Размер файла : 1024 Мбайт
Продолжительность : 21 м. 40 с.
Режим общего битрейта : Переменный
Общий поток : 6607 Кбит/сек
Библиотека кодирования : encoded by TMPGEnc (ver. 2.524.63.181)

Видео
Идентификатор : 224 (0xE0)
Формат : MPEG Video
Версия формата : Version 2
Профиль формата : Main@Main
Настройки формата : CustomMatrix / BVOP
Параметр BVOP формата : Да
Параметр матрицы формата : Выборочная
Параметр GOP формата : Variable
Продолжительность : 21 м. 40 с.
Вид битрейта : Переменный
Битрейт : 5516 Кбит/сек
Ширина : 720 пикселей
Высота : 576 пикселей
Соотношение сторон : 16:9
Частота кадров : 25,000 кадров/сек
Стандарт вещания : PAL
Цветовое пространство : YUV
Субдискретизация насыщенности : 4:2:0
Битовая глубина : 8 бит
Тип развёртки : Прогрессивная
Метод сжатия : С потерями
Бит/(Пиксели*Кадры) : 0.532
Размер потока : 855 Мбайт (83%)
Библиотека кодирования : TMPGEnc 2.524.63.181
Основные цвета : BT.601 PAL
Характеристики трансфера : BT.470 System B, BT.470 System G
Коэффициенты матрицы : BT.470 System B, BT.470 System G

Аудио #1
Идентификатор : 189 (0xBD)-128 (0x80)
Формат : AC-3
Формат/Информация : Audio Coding 3
Параметр Endianness формата : Big
Режим смешивания : DVD-Video
Продолжительность : 21 м. 39 с.
Вид битрейта : Постоянный
Битрейт : 384 Кбит/сек
Каналы : 6 каналов
Расположение каналов : Front: L C R, Side: L R, LFE
Частота : 48,0 КГц
Частота кадров : 31,250 кадров/сек (1536 SPF)
Битовая глубина : 16 бит
Метод сжатия : С потерями
Размер потока : 59,5 Мбайт (6%)
ServiceKind : Complete Main

Аудио #2
Идентификатор : 189 (0xBD)-129 (0x81)
Формат : AC-3
Формат/Информация : Audio Coding 3
Параметр Endianness формата : Big
Режим смешивания : DVD-Video
Продолжительность : 21 м. 39 с.
Вид битрейта : Постоянный
Битрейт : 384 Кбит/сек
Каналы : 6 каналов
Расположение каналов : Front: L C R, Side: L R, LFE
Частота : 48,0 КГц
Частота кадров : 31,250 кадров/сек (1536 SPF)
Битовая глубина : 16 бит
Метод сжатия : С потерями
Размер потока : 59,5 Мбайт (6%)
ServiceKind : Complete Main

Аудио #3
Идентификатор : 189 (0xBD)-130 (0x82)
Формат : AC-3
Формат/Информация : Audio Coding 3
Параметр Endianness формата : Big
Режим смешивания : DVD-Video
Продолжительность : 21 м. 39 с.
Вид битрейта : Постоянный
Битрейт : 192 Кбит/сек
Каналы : 2 канала
Расположение каналов : Front: L R
Частота : 48,0 КГц
Частота кадров : 31,250 кадров/сек (1536 SPF)
Битовая глубина : 16 бит
Метод сжатия : С потерями
Размер потока : 29,8 Мбайт (3%)
ServiceKind : Complete Main

Меню

Источником DVD9 послужила лицензия из рубежа. Предупреждающие надписи удалил. Дубляж, многоголосый перевод и субтитры взял с BDRemux. Аудио обрабатывал UsEac3To и Vegas Pro. Субтитры обрабатывал программой SubtitleEdit и DVD-lab PRO 2. DVD обрабатывал с помощью Adobe Photoshop, Adobe Encore, MuxMan и DvdReMakePro.

На диске была только английская и чешская звуковая дорога и мне ради mvo пришлось создавать почти с нуля в Adobe Encore кнопки настроек аудио и некоторые команды диска переписать для этого.
До: После:


_________________
Проголосуй за трекер Открытый торрент трекер - RUS-MEDIA.ORG

Проголосуй Открытый торрент трекер - RUS-MEDIA.ORG


Скачать книги и аудио книги через торрент


Вернуться к началу
 Профиль Отправить личное сообщение  
 
   Похожие торренты   Автор   Торрент   Размер 
В этой теме нет новых непрочитанных сообщений. Мстители: Финал / Avengers: Endgame [Фантастика, боевик, приключения, 2019] 2xDVD5, Dub [iTunes] [Custom]

salma3

0 | 0

8.64 ГБ

В этой теме нет новых непрочитанных сообщений. Мстители: Финал / Avengers: Endgame [Фантастика, боевик, приключения, 2019] BDRip-HEVC 720p, Dub [iTunes]

salma3

1 | 2

4.48 ГБ

В этой теме нет новых непрочитанных сообщений. Мстители: Финал / Avengers: Endgame [Фантастика, боевик, приключения, 2019] HybridRip 720p, Dub [iTunes] [Open Matte]

salma3

0 | 0

10.17 ГБ

В этой теме нет новых непрочитанных сообщений. Мстители: Финал / Avengers: Endgame [Фантастика, боевик, приключения, 2019] WEBRip-HEVC 720p, Dub [iTunes] [Open Matte] [Локализованная версия]

salma3

0 | 0

4.25 ГБ

В этой теме нет новых непрочитанных сообщений. Мстители: Финал / Avengers: Endgame [Фантастика, фэнтези, боевик, 2019] HDRip, Dub [iTunes]

salma3

26 | 14

1.46 ГБ

В этой теме нет новых непрочитанных сообщений. Мстители: Финал / Avengers: Endgame [Фантастика, фэнтези, боевик, 2019] HDRip, Dub [iTunes]

salma3

0 | 0

2.18 ГБ

В этой теме нет новых непрочитанных сообщений. Мстители: Финал / Avengers: Endgame [Фантастика, фэнтези, боевик, 2019] HDRip-AVC, Dub [iTunes]

salma3

38 | 19

3.56 ГБ


Начать новую тему Ответить на тему  [ 1 сообщение ] 




Для Мосгорсуда, Роскомнадзора и рекламодателей:: rstracker[собака]yandex.ru
cron