COVID-19 - Последняя информация о коронавирусе на сайте Минздрава




Торрент файл
скачать торрент магнет ссылка Добавлен: 13 окт 2019, 16:23
Размер: 4.38 ГБ
Сидеров: 0
Личеров: 0
Автор

СообщениеДобавлено: 13 окт 2019, 16:23 

Не в сети
Аватара пользователя
Дата регистрации:
17 май 2019, 21:15
Возраст: 23
Спасибо: 5 / 0
Сообщения: 262
Информация о фильме
Название: 8 подруг Оушена
Оригинальное название: Ocean's Eight
Год выхода: 2018
Жанр: боевик, триллер, комедия, криминал
Режиссер: Гэри Росс
В ролях: Сандра Буллок, Кейт Бланшетт, Энн Хэтэуэй, Хелена Бонем Картер, Рианна, Сара Полсон, Минди Кейлинг, Ричард Армитедж, Аквафина, Гриффин Данн

О фильме: Пять лет, восемь месяцев, 12 дней… и далее. Именно столько Дебби Оушен разрабатывала план величайшего ограбления своей жизни. Она точно знает, что для него потребуется, — команда лучших в своем деле, начиная с ее давней сообщницы Лу Миллер. Вместе они собирают команду уникальных специалистов. Их цель — неотразимые 150 миллионов долларов в бриллиантах — в бриллиантах на шее всемирно известной актрисы Дафны Клюгер, к которой будет приковано всеобщее внимание на главном событии года — бале в Метрополитен-музее.
Сам план бесподобен, но и реализация должна быть безупречна, если они хотят войти и выйти с драгоценностями в руках. Прямо у всех на виду.



Страна: США
Студия: Rahway Road Productions, Smoke House, Village Roadshow Pictures, Warner Bros. Pictures
Продолжительность: 105 мин. / 01:45
Перевод: профессиональный (дублированный) лицензия

Файл
Кодек: MPEG2
Качество: DVD5 R2
Видео: PAL 16:9 (720x576@1024x576) VBR 5876 Kbps, 25.000 fps
Аудио 1: Dolby AC3, 6 ch, 48.0 KHz, 384 Kbps (русский)
Аудио 2: Dolby AC3, 6 ch, 48.0 KHz, 384 Kbps (английский)
Аудио 3: Dolby AC3, 6 ch, 48.0 KHz, 384 Kbps (чешский)
Субтитры: русские, английские, чешские, эстонские, исландские, латышские, литовские, португальские

Общее
Полное имя : Ocean's Eight (2018) DVD9 R2VIDEO_TSVTS_01_1.VOB
Формат : MPEG-PS
Размер файла : 1024 Мбайт
Продолжительность : 19 м. 26 с.
Режим общего битрейта : Переменный
Общий поток : 7367 Кбит/сек

Видео
Идентификатор : 224 (0xE0)
Формат : MPEG Video
Версия формата : Version 2
Профиль формата : Main@Main
Настройки формата : CustomMatrix / BVOP
Параметр BVOP формата : Да
Параметр матрицы формата : Выборочная
Параметр GOP формата : Variable
Продолжительность : 19 м. 26 с.
Вид битрейта : Переменный
Битрейт : 5876 Кбит/сек
Максимальный битрейт : 9800 Кбит/сек
Ширина : 720 пикселей
Высота : 576 пикселей
Соотношение сторон : 16:9
Частота кадров : 25,000 кадров/сек
Стандарт вещания : PAL
Цветовое пространство : YUV
Субдискретизация насыщенности : 4:2:0
Битовая глубина : 8 бит
Тип развёртки : Прогрессивная
Порядок развёртки : Верхнее поле первое
Метод сжатия : С потерями
Бит/(Пиксели*Кадры) : 0.567
Временной код первого кадра : 01:00:00:00
Оригинал временного кода : Group of pictures header
Размер потока : 817 Мбайт (80%)

Аудио #1
Идентификатор : 189 (0xBD)-128 (0x80)
Формат : AC-3
Формат/Информация : Audio Coding 3
Параметр Endianness формата : Big
Режим смешивания : DVD-Video
Продолжительность : 19 м. 25 с.
Вид битрейта : Постоянный
Битрейт : 384 Кбит/сек
Каналы : 6 каналов
Расположение каналов : Front: L C R, Side: L R, LFE
Частота : 48,0 КГц
Частота кадров : 31,250 кадров/сек (1536 SPF)
Битовая глубина : 16 бит
Метод сжатия : С потерями
Размер потока : 53,4 Мбайт (5%)

Аудио #2
Идентификатор : 189 (0xBD)-131 (0x83)
Формат : AC-3
Формат/Информация : Audio Coding 3
Режим : Dolby Digital
Параметр Endianness формата : Big
Режим смешивания : DVD-Video
Продолжительность : 19 м. 26 с.
Вид битрейта : Постоянный
Битрейт : 192 Кбит/сек
Каналы : 2 канала
Расположение каналов : Front: L R
Частота : 48,0 КГц
Частота кадров : 31,250 кадров/сек (1536 SPF)
Битовая глубина : 16 бит
Метод сжатия : С потерями
Задержка видео : -74 мс.
Размер потока : 26,7 Мбайт (3%)

Аудио #3
Идентификатор : 189 (0xBD)-129 (0x81)
Формат : AC-3
Формат/Информация : Audio Coding 3
Параметр Endianness формата : Big
Режим смешивания : DVD-Video
Продолжительность : 7 с. 136 мс.
Вид битрейта : Постоянный
Битрейт : 384 Кбит/сек
Каналы : 6 каналов
Расположение каналов : Front: L C R, Side: L R, LFE
Частота : 48,0 КГц
Частота кадров : 31,250 кадров/сек (1536 SPF)
Битовая глубина : 16 бит
Метод сжатия : С потерями
Размер потока : 335 Кбайт (0%)

Аудио #4
Идентификатор : 189 (0xBD)-130 (0x82)
Формат : AC-3
Формат/Информация : Audio Coding 3
Параметр Endianness формата : Big
Режим смешивания : DVD-Video
Продолжительность : 7 с. 136 мс.
Вид битрейта : Постоянный
Битрейт : 384 Кбит/сек
Каналы : 6 каналов
Расположение каналов : Front: L C R, Side: L R, LFE
Частота : 48,0 КГц
Частота кадров : 31,250 кадров/сек (1536 SPF)
Битовая глубина : 16 бит
Метод сжатия : С потерями
Размер потока : 335 Кбайт (0%)

Текст #1
Идентификатор : 189 (0xBD)-32 (0x20)
Формат : RLE
Формат/Информация : Run-length encoding
Режим смешивания : DVD-Video
Продолжительность : 19 м. 19 с.
Задержка видео : 4 с. 406 мс.

Текст #2
Идентификатор : 189 (0xBD)-33 (0x21)
Формат : RLE
Формат/Информация : Run-length encoding
Режим смешивания : DVD-Video
Продолжительность : 19 м. 17 с.
Задержка видео : 6 с. 6 мс.

Текст #3
Идентификатор : 189 (0xBD)-38 (0x26)
Формат : RLE
Формат/Информация : Run-length encoding
Режим смешивания : DVD-Video
Продолжительность : 19 м. 17 с.
Задержка видео : 6 с. 6 мс.

Текст #4
Идентификатор : 189 (0xBD)-39 (0x27)
Формат : RLE
Формат/Информация : Run-length encoding
Режим смешивания : DVD-Video
Продолжительность : 19 м. 17 с.
Задержка видео : 6 с. 6 мс.

Текст #5
Идентификатор : 189 (0xBD)-40 (0x28)
Формат : RLE
Формат/Информация : Run-length encoding
Режим смешивания : DVD-Video
Задержка видео : 6 с. 6 мс.

Текст #6
Идентификатор : 189 (0xBD)-41 (0x29)
Формат : RLE
Формат/Информация : Run-length encoding
Режим смешивания : DVD-Video
Задержка видео : 6 с. 6 мс.

Текст #7
Идентификатор : 189 (0xBD)-34 (0x22)
Формат : RLE
Формат/Информация : Run-length encoding
Режим смешивания : DVD-Video

Текст #8
Идентификатор : 189 (0xBD)-35 (0x23)
Формат : RLE
Формат/Информация : Run-length encoding
Режим смешивания : DVD-Video

Текст #9
Идентификатор : 189 (0xBD)-36 (0x24)
Формат : RLE
Формат/Информация : Run-length encoding
Режим смешивания : DVD-Video

Текст #10
Идентификатор : 189 (0xBD)-37 (0x25)
Формат : RLE
Формат/Информация : Run-length encoding
Режим смешивания : DVD-Video

Меню




Скачать книги и аудио книги через торрент


Вернуться к началу
 Профиль Отправить личное сообщение  
 
   Похожие торренты   Автор   Торрент   Размер 
В этой теме нет новых непрочитанных сообщений. 8 подруг Оушена / Ocean's Eight [Боевик, триллер, комедия, 2018] BDRip, Dub [Лицензия]

salma3

0 | 0

1.46 ГБ

В этой теме нет новых непрочитанных сообщений. 8 подруг Оушена / Ocean's Eight [Боевик, триллер, комедия, 2018] BDRip-AVC, Dub [Лицензия]

salma3

0 | 0

2.07 ГБ

В этой теме нет новых непрочитанных сообщений. 8 подруг Оушена / Ocean's Eight [Боевик, триллер, комедия, 2018] UHD Blu-ray 2160p, Dub [Лицензия] [4K] [Dolby Vision]

salma3

0 | 0

57.53 ГБ

В этой теме нет новых непрочитанных сообщений. 8 подруг Оушена / Ocean's Eight [Боевик, триллер, комедия, 2018] WEB-DL 1080p, Dub [iTunes]

salma3

17 | 4

4.21 ГБ

В этой теме нет новых непрочитанных сообщений. 8 подруг Оушена / Ocean's Eight [Боевик, триллер, комедия, 2018] WEB-DL 720p, Dub [iTunes]

salma3

0 | 0

3.81 ГБ

В этой теме нет новых непрочитанных сообщений. 8 подруг Оушена / Ocean's Eight [Боевик, триллер, комедия, 2018] BDRemux 1080p, Dub [iTunes]

salma3

0 | 0

20.87 ГБ

В этой теме нет новых непрочитанных сообщений. 8 подруг Оушена / Ocean's Eight [Боевик, триллер, комедия, 2018] WEB-DLRip, Dub [iTunes]

salma3

10423 | 3328

1.46 ГБ


Начать новую тему Ответить на тему  [ 1 сообщение ] 




Для Мосгорсуда, Роскомнадзора и рекламодателей:: rstracker[собака]yandex.ru
cron