Торрент файл
скачать торрент магнет ссылка Добавлен: 02 июл 2019, 16:55
Размер: 8.5 ГБ
Сидеров: 0
Личеров: 0
Статус: (salma3)
Автор

СообщениеДобавлено: 02 июл 2019, 16:55 

Информация о фильме
Название: Небоскреб
Оригинальное название: Skyscraper
Год выхода: 2018
Режиссер: Роусон Маршалл Тёрбер
В ролях: Дуэйн Джонсон, Нив Кэмпбелл, Чинь Хань, Роланд Мюллер, Ноа Тейлор, Байрон Манн, Пабло Шрайбер, МакКенна Робертс, Ной Коттрелл, Ханна Куинливан

О фильме:
Самый высокий и технологичный небоскрёб в мире становится центром огненной катастрофы. Только бывший агент ФБР, а теперь эксперт по безопасности Уилл Сойер может спасти вертикальный город под небесами. Когда нельзя доверять никому, а жизнь семьи в опасности, каждая секунда на счету.

Страна: США
Студия: 7 Bucks Productions, Flynn Picture Company, Legendary Pictures, The Third Floor
Продолжительность: 98 мин. / 01:38
Перевод: профессиональный (дублированный) лицензия

Файл
Кодек: MPEG2
Качество: DVD9+DVD5 «НД Плэй»
Видео: PAL 16:9 (720x576@1024x576) VBR 6406 Kbps, 25.000 fps
Аудио 1: Dolby AC3, 6 ch, 48.0 KHz, 384 Kbps (русский)
Аудио 2: Dolby AC3, 6 ch, 48.0 KHz, 384 Kbps (английский)
Аудио 3: Dolby AC3, 6 ch, 48.0 KHz, 384 Kbps (польский)
Субтитры: русские, английские, польские, эстонские, латышские, литовские
DVD 1:Удалённые эпизодыРасширенные эпизодыДуэйн Джонсон: Как сыграть герояВдохновениеВраждующие силыБольше не друзьяДети вступают в игруБросок ананасаКомментарий к фильму режиссёра Роусона Маршалла Тёрбера

DVD 2:[*]Отрываясь от землиСара СойерКак всё сделать правильноКак создавали "жемчужину"Создание Джейд-паркаПрыжок в неизвестностьТрюки: Переход мостаФинал со сферой
Общее
Полное имя : Skyscraper (2018) DVD9+DVD5 R5Disc 1VIDEO_TSVTS_02_3.VOB
Формат : MPEG-PS
Размер файла : 1024 Мбайт
Продолжительность : 18 м. 6 с.
Режим общего битрейта : Переменный
Общий поток : 7907 Кбит/сек

Видео
Идентификатор : 224 (0xE0)
Формат : MPEG Video
Версия формата : Version 2
Профиль формата : Main@Main
Настройки формата : CustomMatrix / BVOP
Параметр BVOP формата : Да
Параметр матрицы формата : Выборочная
Параметр GOP формата : Variable
Продолжительность : 18 м. 6 с.
Вид битрейта : Переменный
Битрейт : 6406 Кбит/сек
Максимальный битрейт : 9800 Кбит/сек
Ширина : 720 пикселей
Высота : 576 пикселей
Соотношение сторон : 16:9
Частота кадров : 25,000 кадров/сек
Стандарт вещания : PAL
Цветовое пространство : YUV
Субдискретизация насыщенности : 4:2:0
Битовая глубина : 8 бит
Тип развёртки : Прогрессивная
Порядок развёртки : Верхнее поле первое
Метод сжатия : С потерями
Бит/(Пиксели*Кадры) : 0.618
Временной код первого кадра : 01:39:46:21
Оригинал временного кода : Group of pictures header
Размер потока : 829 Мбайт (81%)

Аудио #1
Идентификатор : 189 (0xBD)-128 (0x80)
Формат : AC-3
Формат/Информация : Audio Coding 3
Параметр Endianness формата : Big
Режим смешивания : DVD-Video
Продолжительность : 18 м. 6 с.
Вид битрейта : Постоянный
Битрейт : 384 Кбит/сек
Каналы : 6 каналов
Расположение каналов : Front: L C R, Side: L R, LFE
Частота : 48,0 КГц
Частота кадров : 31,250 кадров/сек (1536 SPF)
Битовая глубина : 16 бит
Метод сжатия : С потерями
Задержка видео : -304 мс.
Размер потока : 49,7 Мбайт (5%)

Аудио #2
Идентификатор : 189 (0xBD)-129 (0x81)
Формат : AC-3
Формат/Информация : Audio Coding 3
Параметр Endianness формата : Big
Режим смешивания : DVD-Video
Продолжительность : 18 м. 6 с.
Вид битрейта : Постоянный
Битрейт : 384 Кбит/сек
Каналы : 6 каналов
Расположение каналов : Front: L C R, Side: L R, LFE
Частота : 48,0 КГц
Частота кадров : 31,250 кадров/сек (1536 SPF)
Битовая глубина : 16 бит
Метод сжатия : С потерями
Задержка видео : -304 мс.
Размер потока : 49,7 Мбайт (5%)

Аудио #3
Идентификатор : 189 (0xBD)-130 (0x82)
Формат : AC-3
Формат/Информация : Audio Coding 3
Параметр Endianness формата : Big
Режим смешивания : DVD-Video
Продолжительность : 18 м. 6 с.
Вид битрейта : Постоянный
Битрейт : 384 Кбит/сек
Каналы : 6 каналов
Расположение каналов : Front: L C R, Side: L R, LFE
Частота : 48,0 КГц
Частота кадров : 31,250 кадров/сек (1536 SPF)
Битовая глубина : 16 бит
Метод сжатия : С потерями
Задержка видео : -304 мс.
Размер потока : 49,7 Мбайт (5%)

Текст #1
Идентификатор : 189 (0xBD)-32 (0x20)
Формат : RLE
Формат/Информация : Run-length encoding
Режим смешивания : DVD-Video
Продолжительность : 18 м. 0 с.
Задержка видео : 4 с. 400 мс.

Текст #2
Идентификатор : 189 (0xBD)-41 (0x29)
Формат : RLE
Формат/Информация : Run-length encoding
Режим смешивания : DVD-Video
Продолжительность : 18 м. 5 с.
Задержка видео : 200 мс.

Меню




Скачать книги и аудио книги через торрент


Вернуться к началу
  
 
   Похожие торренты   Автор   Торрент   Размер 
В этой теме нет новых непрочитанных сообщений. Небоскрёб / Skyscraper [Боевик, триллер, драма, 2018] BDRip, Dub [Лицензия]

salma3

0 | 0

1.46 ГБ

В этой теме нет новых непрочитанных сообщений. Небоскрёб / Skyscraper [Боевик, триллер, драма, 2018] BDRip 1080p, Dub [Лицензия]

salma3

0 | 0

9.51 ГБ

В этой теме нет новых непрочитанных сообщений. Небоскрёб / Skyscraper [Боевик, триллер, драма, 2018] BDRip-AVC, Dub [Лицензия]

salma3

0 | 0

1.45 ГБ

В этой теме нет новых непрочитанных сообщений. Небоскрёб / Skyscraper [Боевик, триллер, драма, 2018] BDRemux 1080p, Dub [Лицензия]

salma3

0 | 0

29.12 ГБ

В этой теме нет новых непрочитанных сообщений. Небоскрёб / Skyscraper [Боевик, триллер, драма, 2018] BDRip 720p, Dub [Лицензия]

salma3

0 | 0

5.57 ГБ

В этой теме нет новых непрочитанных сообщений. Небоскреб / Skyscraper [боевик, триллер, 2018] Blu-ray EUR 1080p, Dub [Лицензия]

salma3

0 | 0

35.91 ГБ

В этой теме нет новых непрочитанных сообщений. Небоскрёб / Skyscraper [Боевик, триллер, драма, 2018] BDRemux 1080p, Dub [Лицензия] [3D-Video]

salma3

13 | 2

40.43 ГБ


Начать новую тему Ответить на тему  [ 1 сообщение ] 




Для Мосгорсуда, Роскомнадзора и рекламодателей:: mosgorsud-torrent[собачка]yandex.ru
cron