COVID-19 - Последняя информация о коронавирусе на сайте Минздрава




Торрент файл
скачать торрент магнет ссылка Добавлен: 11 июл 2018, 11:46
Размер: 7.35 ГБ
Сидеров: 0
Личеров: 0
Статус: (salma3)
Автор

СообщениеДобавлено: 11 июл 2018, 11:46 

Не в сети
Супермодератор
Аватара пользователя
Дата регистрации:
15 фев 2012, 16:44
Возраст: 31
Спасибо: 8277 / 2148
Сообщения: 96623
Год выхода: 2017
Жанр: драма, военный, биография, история
Режиссер: Джо Райт

В ролях: Гари Олдман, Кристин Скотт Томас, Бен Мендельсон, Лили Джеймс, Рональд Пикап, Стивен Диллэйн, Николас Джонс, Сэмюэл Уэст, Дэвид Скофилд, Ричард Ламсден

О фильме:
История о первом и решающем шаге Уинстона Черчилля на посту премьер-министра Великобритании, получившего власть при чрезвычайных обстоятельствах. Успехи нацистской армии взбудоражили британское сообщество, но вопреки давлению и страху других политиков Черчилль отказывается идти на соглашение с Гитлером.



Страна: Великобритания, США
Продолжительность: 02:00:10
Перевод: профессиональный (дублированный) лицензия

Файл
Кодек: MPEG2
Качество: DVD9
Видео: PAL 16:9 (720x576@1024x576) VBR 6765 Kbps, 25.000 fps
Аудио 1: Dolby AC3, 6 ch, 48.0 KHz, 384 Kbps (русский)
Аудио 2: Dolby AC3, 6 ch, 48.0 KHz, 384 Kbps (английский)
Аудио 3: Dolby AC3, 6 ch, 48.0 KHz, 384 Kbps (испанский)
Аудио 4: Dolby AC3, 2 ch, 48.0 KHz, 192 Kbps (английский описательный)
Аудио 5: Dolby AC3, 2 ch, 48.0 KHz, 192 Kbps (комментарии)
Субтитры: русские, английские, испанские, датские, финские, норвежские, шведские, португальские, хинди, арабские, исландские, эстонские, латышские, литовские
Общее
Полное имя : Darkest Hour (2017) DVD9 R5VIDEO_TSVTS_07_1.VOB
Формат : MPEG-PS
Размер файла : 1024 Мбайт
Продолжительность : 16 м. 54 с.
Режим общего битрейта : Переменный
Общий поток : 8469 Кбит/сек

Видео
Идентификатор : 224 (0xE0)
Формат : MPEG Video
Версия формата : Version 2
Профиль формата : Main@Main
Настройки формата : CustomMatrix / BVOP
Параметр BVOP формата : Да
Параметр матрицы формата : Выборочная
Параметр GOP формата : M=3, N=15
Структура изображения : Frame
Продолжительность : 16 м. 54 с.
Вид битрейта : Переменный
Битрейт : 6765 Кбит/сек
Максимальный битрейт : 7400 Кбит/сек
Ширина : 720 пикселей
Высота : 576 пикселей
Соотношение сторон : 16:9
Частота кадров : 25,000 кадров/сек
Стандарт вещания : PAL
Цветовое пространство : YUV
Субдискретизация насыщенности : 4:2:0
Битовая глубина : 8 бит
Тип развёртки : Чересстрочная
Порядок развёртки : Верхнее поле первое
Метод сжатия : С потерями
Бит/(Пиксели*Кадры) : 0.652
Временной код первого кадра : 00:59:59:00
Оригинал временного кода : Group of pictures header
GOP, открыто/закрыто : Открыто
GOP, открыто/закрыто на первом кадре : Закрыто
Размер потока : 818 Мбайт (80%)

Аудио #1
Идентификатор : 189 (0xBD)-128 (0x80)
Формат : AC-3
Формат/Информация : Audio Coding 3
Параметр Endianness формата : Big
Режим смешивания : DVD-Video
Продолжительность : 16 м. 53 с.
Вид битрейта : Постоянный
Битрейт : 384 Кбит/сек
Каналы : 6 каналов
Расположение каналов : Front: L C R, Side: L R, LFE
Частота : 48,0 КГц
Частота кадров : 31,250 кадров/сек (1536 SPF)
Битовая глубина : 16 бит
Метод сжатия : С потерями
Размер потока : 46,4 Мбайт (5%)

Аудио #2
Идентификатор : 189 (0xBD)-129 (0x81)
Формат : AC-3
Формат/Информация : Audio Coding 3
Параметр Endianness формата : Big
Режим смешивания : DVD-Video
Продолжительность : 16 м. 53 с.
Вид битрейта : Постоянный
Битрейт : 384 Кбит/сек
Каналы : 6 каналов
Расположение каналов : Front: L C R, Side: L R, LFE
Частота : 48,0 КГц
Частота кадров : 31,250 кадров/сек (1536 SPF)
Битовая глубина : 16 бит
Метод сжатия : С потерями
Размер потока : 46,4 Мбайт (5%)

Аудио #3
Идентификатор : 189 (0xBD)-130 (0x82)
Формат : AC-3
Формат/Информация : Audio Coding 3
Параметр Endianness формата : Big
Режим смешивания : DVD-Video
Продолжительность : 16 м. 53 с.
Вид битрейта : Постоянный
Битрейт : 384 Кбит/сек
Каналы : 6 каналов
Расположение каналов : Front: L C R, Side: L R, LFE
Частота : 48,0 КГц
Частота кадров : 31,250 кадров/сек (1536 SPF)
Битовая глубина : 16 бит
Метод сжатия : С потерями
Размер потока : 46,4 Мбайт (5%)

Аудио #4
Идентификатор : 189 (0xBD)-131 (0x83)
Формат : AC-3
Формат/Информация : Audio Coding 3
Режим : Dolby Digital
Параметр Endianness формата : Big
Режим смешивания : DVD-Video
Продолжительность : 16 м. 53 с.
Вид битрейта : Постоянный
Битрейт : 192 Кбит/сек
Каналы : 2 канала
Расположение каналов : Front: L R
Частота : 48,0 КГц
Частота кадров : 31,250 кадров/сек (1536 SPF)
Битовая глубина : 16 бит
Метод сжатия : С потерями
Размер потока : 23,2 Мбайт (2%)

Аудио #5
Идентификатор : 189 (0xBD)-132 (0x84)
Формат : AC-3
Формат/Информация : Audio Coding 3
Режим : Dolby Digital
Параметр Endianness формата : Big
Режим смешивания : DVD-Video
Продолжительность : 16 м. 53 с.
Вид битрейта : Постоянный
Битрейт : 192 Кбит/сек
Каналы : 2 канала
Расположение каналов : Front: L R
Частота : 48,0 КГц
Частота кадров : 31,250 кадров/сек (1536 SPF)
Битовая глубина : 16 бит
Метод сжатия : С потерями
Размер потока : 23,2 Мбайт (2%)

Текст #1
Идентификатор : 189 (0xBD)-46 (0x2E)
Формат : RLE
Формат/Информация : Run-length encoding
Режим смешивания : DVD-Video

Текст #2
Идентификатор : 189 (0xBD)-47 (0x2F)
Формат : RLE
Формат/Информация : Run-length encoding
Режим смешивания : DVD-Video

Меню



_________________
Проголосуй за трекер Открытый торрент трекер - RUS-MEDIA.ORG

Проголосуй Открытый торрент трекер - RUS-MEDIA.ORG


Скачать книги и аудио книги через торрент


Вернуться к началу
 Профиль Отправить личное сообщение  
 
   Похожие торренты   Автор   Торрент   Размер 
В этой теме нет новых непрочитанных сообщений. Темные времена / Darkest Hour [Драма, военный, биография, история, 2017] Blu-ray EUR, Dub[Лицензия]

salma3

0 | 0

34.15 ГБ

В этой теме нет новых непрочитанных сообщений. Темные времена / Darkest Hour [Драма, военный, биография, история, 2017] UHD BDRemux 2160p, Dub [Лицензия] [4K]

salma3

3 | 8

51.71 ГБ

В этой теме нет новых непрочитанных сообщений. Темные времена / Darkest Hour [драма, военный, биография, история, 2017] Blu-ray EUR 1080p, Dub [Лицензия]

salma3

3 | 7

34.15 ГБ

В этой теме нет новых непрочитанных сообщений. Темные времена / Darkest Hour [Драма, военный, биография, история, 2017] BDRip, Dub [iTunes]

salma3

143 | 35

1.46 ГБ

В этой теме нет новых непрочитанных сообщений. Темные времена / Darkest Hour [Драма, военный, биография, история, 2017] BDRip, Dub [iTunes]

salma3

56 | 14

2.13 ГБ

В этой теме нет новых непрочитанных сообщений. Темные времена / Darkest Hour [Драма, военный, биография, 2017] BDRip, Dub [Лицензия]

salma3

241 | 120

1.46 ГБ

В этой теме нет новых непрочитанных сообщений. Темные времена / Darkest Hour [Драма, военный, биография, 2017] BDRip, Dub [Лицензия]

salma3

123 | 54

2.18 ГБ


Начать новую тему Ответить на тему  [ 1 сообщение ] 




Для Мосгорсуда, Роскомнадзора и рекламодателей:: rstracker[собака]yandex.ru
cron