COVID-19 - Последняя информация о коронавирусе на сайте Минздрава




Торрент файл
скачать торрент магнет ссылка Добавлен: 15 июн 2018, 11:08
Размер: 3.88 ГБ
Сидеров: 0
Личеров: 0
Статус: (salma3)
Автор

СообщениеДобавлено: 15 июн 2018, 11:08 

Не в сети
Супермодератор
Аватара пользователя
Дата регистрации:
15 фев 2012, 16:44
Возраст: 31
Спасибо: 8277 / 2148
Сообщения: 96623
Год выхода: 2014
Жанр: ужасы, мелодрама, детектив
Режиссер: Мак Картер

В ролях: Харрисон Гилбертсон, Лиана Либерато, Джеки Уивер, Айони Скай, Даниэль Чакран, Карл Хадра, Себастьян Майкл Барр, Брук Келли, Брайан Уиммер, Элла Харрис

О фильме:
Семья 18-ти летнего Эвана переезжает в новый дом, прошлые владельцы которого погибли при странных обстоятельствах. Единственная выжившая хозяйка дома — Джанет отказывается раскрывать тайну трагической гибели родных. Отправившись как-то раз ночью на прогулку, Эван встречает прекрасную девушку Саманту. Подростки начинают тесно общаться. Их общий интерес — таинственный дом семьи Ашер. Сэм рассказывает Эвану о том, что случилось с прошлыми владельцами дома. Герои решают выйти с призраками на прямой контакт. Но становится очевидно: не все тайны стоит разгадывать, ибо за ними кроется нечто совершенно ужасающее…



Страна: США
Продолжительность: 01:22:00
Перевод: профессиональный (дублированный) лицензия

Файл
Кодек: MPEG2
Качество: DVD5 R5
Видео: PAL 16:9 (720x576@1024x576) VBR 6392 Kbps, 25.000 fps
Аудио: Dolby AC3, 6 ch, 48.0 KHz, 448 Kbps (русский)

Общее
Полное имя : Haunt (2014) DVD5 R5VIDEO_TSVTS_02_1.VOB
Формат : MPEG-PS
Размер файла : 1024 Мбайт
Продолжительность : 20 м. 30 с.
Режим общего битрейта : Переменный
Общий поток : 6979 Кбит/сек

Видео
Идентификатор : 224 (0xE0)
Формат : MPEG Video
Версия формата : Version 2
Профиль формата : Main@Main
Настройки формата : CustomMatrix / BVOP
Параметр BVOP формата : Да
Параметр матрицы формата : Выборочная
Параметр GOP формата : M=3, N=12
Структура изображения : Frame
Продолжительность : 20 м. 30 с.
Вид битрейта : Переменный
Битрейт : 6392 Кбит/сек
Максимальный битрейт : 9000 Кбит/сек
Ширина : 720 пикселей
Высота : 576 пикселей
Соотношение сторон : 16:9
Частота кадров : 25,000 кадров/сек
Стандарт вещания : PAL
Цветовое пространство : YUV
Субдискретизация насыщенности : 4:2:0
Битовая глубина : 8 бит
Тип развёртки : Чересстрочная
Порядок развёртки : Верхнее поле первое
Метод сжатия : С потерями
Бит/(Пиксели*Кадры) : 0.617
Временной код первого кадра : 00:00:00:00
Оригинал временного кода : Group of pictures header
GOP, открыто/закрыто : Закрыто
Размер потока : 938 Мбайт (92%)
Основные цвета : BT.601 PAL
Характеристики трансфера : BT.470 System B, BT.470 System G
Коэффициенты матрицы : BT.601

Аудио
Идентификатор : 189 (0xBD)-128 (0x80)
Формат : AC-3
Формат/Информация : Audio Coding 3
Параметр Endianness формата : Big
Режим смешивания : DVD-Video
Продолжительность : 20 м. 30 с.
Вид битрейта : Постоянный
Битрейт : 448 Кбит/сек
Каналы : 5 каналов
Расположение каналов : Front: L C R, Side: L R
Частота : 48,0 КГц
Частота кадров : 31,250 кадров/сек (1536 SPF)
Битовая глубина : 16 бит
Метод сжатия : С потерями
Размер потока : 65,7 Мбайт (6%)

Меню



_________________
Проголосуй за трекер Открытый торрент трекер - RUS-MEDIA.ORG

Проголосуй Открытый торрент трекер - RUS-MEDIA.ORG


Скачать книги и аудио книги через торрент


Вернуться к началу
 Профиль Отправить личное сообщение  
 
   Похожие торренты   Автор   Торрент   Размер 
В этой теме нет новых непрочитанных сообщений. Они / Haunt [Ужасы, триллер, 2019] WEB-DLRip, Dub [iTunes]

salma3

0 | 0

1.46 ГБ

В этой теме нет новых непрочитанных сообщений. Они / Haunt [Ужасы, триллер, 2019] WEB-DL 1080p, Dub [iTunes]

salma3

0 | 0

5.98 ГБ

В этой теме нет новых непрочитанных сообщений. Демоны Деборы Логан / The Taking [ужасы, триллер, детектив, 2014] DVD5, Dub

salma3

0 | 1

4.1 ГБ

В этой теме нет новых непрочитанных сообщений. Оно / It Follows [Ужасы, детектив, триллер, 2014] BDRip, Dub [Лицензия]

salma3

8 | 2

1.46 ГБ

В этой теме нет новых непрочитанных сообщений. Оно / It Follows [Ужасы, детектив, триллер, 2014] BDRip, Dub [Лицензия]

salma3

0 | 0

1.46 ГБ

В этой теме нет новых непрочитанных сообщений. Логово Монстра / Bad Samaritan [Ужасы, триллер, 2018] BDRip, Dub [iTunes]

salma3

52 | 27

1.41 ГБ

В этой теме нет новых непрочитанных сообщений. Логово Монстра / Bad Samaritan [Ужасы, триллер, 2018] HDRip, Dub [iTunes]

salma3

147 | 201

1.46 ГБ


Начать новую тему Ответить на тему  [ 1 сообщение ] 




Для Мосгорсуда, Роскомнадзора и рекламодателей:: rstracker[собака]yandex.ru
cron