Торрент файл
скачать торрент магнет ссылка Добавлен: 14 мар 2018, 15:22
Размер: 4.35 ГБ
Сидеров: 0
Личеров: 0
Статус: (salma3)
Автор

СообщениеДобавлено: 14 мар 2018, 15:22 

Не в сети
Супермодератор
Аватара пользователя
Дата регистрации:
15 фев 2012, 16:44
Возраст: 28
Спасибо: 7290 / 2147
Сообщения: 70395
Год выпуска: 2017
Производство: США, Великобритания, Канада
Жанр: Фантастика, фэнтези, боевик

Режиссер: Зак Снайдер
Продюсеры: Бен Аффлек, Мэдисон Эйнли, Джон Берг
Актеры: Бен Аффлек, Генри Кавилл, Эми Адамс, Галь Гадот, Эзра Миллер, Джейсон Момоа, Рэй Фишер, Джереми Айронс, Дайан Лэйн, Конни Нильсен

Описание:
Брюс Уэйн, вдохновленный самопожертвованием Супермена, вновь обретает веру в человечество. Он заручается поддержкой новой союзницы, Дианы Принс, чтобы сразиться с еще более могущественным противником. Бэтмен и Чудо-Женщина быстро набирают команду сверхлюдей для борьбы с пробудившейся угрозой. Но несмотря на уникальный состав отряда супергероев — Бэтмен, Чудо-Женщина, Аквамэн, Киборг и Флэш, — быть может, спасать планету от вторжения катастрофических масштабов уже слишком поздно.

Перевод: Дублированный
Субтитры: Русские, английские


Продолжительность: 01:55:07
Качество видео: DVD5 [BD -> DVD]

Видео: MPEG-2, 720x576@1024x576 (PAL 16:9), ~4300 Кбит/сек
Аудио 1: AC3 5.1, 448 Кбит/сек [Русский - дублированный]
Аудио 2: AC3 5.1, 448 Кбит/сек [Английский - оригинал]

Title: Justice League (2017) DVD5 [BD-DVD]
Size: 4.35 Gb ( 4 559 674 KBytes ) - DVD-5
Enabled regions: 1, 2, 3, 4, 5, 6, 7, 8

VTS_01 :
Play Length: 01:55:07
Video: PAL 16:9 (720x576) VBR, Auto Pan&Scan
Audio:
Russian (Dolby AC3, 6 ch)
English (Dolby AC3, 6 ch)
Subtitles:
Russian
English
Russian

Menu Video:
PAL 16:9 (720x576) VBR
Auto Pan&Scan
Menu Audio:
Not specified (Dolby AC3, 6 ch)
Menu Subtitles:
Not specified
Menu English Language Unit :
Root Menu
Видео
Идентификатор : 224 (0xE0)
Формат : MPEG Video
Версия формата : Version 2
Профиль формата : Main@Main
Настройки формата : CustomMatrix / BVOP
Параметр BVOP формата : Да
Параметр матрицы формата : Выборочная
Параметр GOP формата : Variable
Продолжительность : 26 м. 45 с.
Вид битрейта : Переменный
Битрейт : 4347 Кбит/сек
Максимальный битрейт : 8900 Кбит/сек
Ширина : 720 пикселей
Высота : 576 пикселей
Соотношение сторон : 16:9
Частота кадров : 25,000 кадров/сек
Стандарт вещания : PAL
Цветовое пространство : YUV
Субдискретизация насыщенности : 4:2:0
Битовая глубина : 8 бит
Тип развёртки : Прогрессивная
Метод сжатия : С потерями
Бит/(Пиксели*Кадры) : 0.419
Временной код первого кадра : 00:29:57:24
Оригинал временного кода : Group of pictures header
Размер потока : 832 Мбайт (81%)

Аудио #1
Идентификатор : 189 (0xBD)-128 (0x80)
Формат : AC-3
Формат/Информация : Audio Coding 3
Параметр Endianness формата : Big
Режим смешивания : DVD-Video
Продолжительность : 26 м. 45 с.
Вид битрейта : Постоянный
Битрейт : 448 Кбит/сек
Каналы : 6 каналов
Расположение каналов : Front: L C R, Side: L R, LFE
Частота : 48,0 КГц
Частота кадров : 31,250 кадров/сек (1536 SPF)
Битовая глубина : 16 бит
Метод сжатия : С потерями
Задержка видео : -408 мс.
Размер потока : 85,8 Мбайт (8%)
ServiceKind : Complete Main

Аудио #2
Идентификатор : 189 (0xBD)-129 (0x81)
Формат : AC-3
Формат/Информация : Audio Coding 3
Параметр Endianness формата : Big
Режим смешивания : DVD-Video
Продолжительность : 26 м. 45 с.
Вид битрейта : Постоянный
Битрейт : 448 Кбит/сек
Каналы : 6 каналов
Расположение каналов : Front: L C R, Side: L R, LFE
Частота : 48,0 КГц
Частота кадров : 31,250 кадров/сек (1536 SPF)
Битовая глубина : 16 бит
Метод сжатия : С потерями
Задержка видео : -408 мс.
Размер потока : 85,8 Мбайт (8%)
ServiceKind : Complete Main

Меню

Источником видео и звуковых дорог послужил Blu-Ray. Субтитры, главы и часть фрагментов меню взял с DVD. Видео обрабатывалось с помощью CarbonCoder в VBR в два прохода. Звуковые дорожки обрабатывались в Sony Vegas. Меню обрабатывал с помощью Adobe Photoshop, Adobe Encore и DvdReMakePro.


_________________
Проголосуй за трекер Открытый торрент трекер - RUS-MEDIA.ORG

Проголосуй Открытый торрент трекер - RUS-MEDIA.ORG


Вернуться к началу
 Профиль Отправить личное сообщение  
 
   Похожие торренты   Автор   Торрент   Размер 
В этой теме нет новых непрочитанных сообщений. Лига справедливости / Justice League [фантастика, фэнтези, боевик, 2017] WEBRip, Mvo

salma3

311 | 28

1.47 ГБ

В этой теме нет новых непрочитанных сообщений. Лига справедливости / Justice League [Фантастика, фэнтези, боевик, 2017] UHD Blu-Ray 2160p, Dub [Лицензия] [4K]

salma3

15 | 0

60.99 ГБ

В этой теме нет новых непрочитанных сообщений. Лига справедливости / Justice League [фантастика, фэнтези, боевик, 2017] WEBRip 720p, Mvo

salma3

332 | 24

3.41 ГБ

В этой теме нет новых непрочитанных сообщений. Лига справедливости / Justice League [фантастика, фэнтези, боевик, 2017] Blu-ray EUR 1080p, Dub [Лицензия]

salma3

0 | 1

38.12 ГБ

В этой теме нет новых непрочитанных сообщений. Лига справедливости / Justice League [Фантастика, фэнтези, боевик, 2017] BDRip, Dub [Лицензия]

salma3

0 | 0

2.18 ГБ

В этой теме нет новых непрочитанных сообщений. Лига справедливости / Justice League [фантастика, фэнтези, боевик, 2017] WEB-DL 1080p, Dub [iTunes]

salma3

281 | 89

5.14 ГБ

В этой теме нет новых непрочитанных сообщений. Лига справедливости / Justice League [Фантастика, фэнтези, боевик, 2017] BDRip, Dub [Лицензия]

salma3

1016 | 105

1.46 ГБ


Начать новую тему Ответить на тему  [ 1 сообщение ] 




Для Мосгорсуда, Роскомнадзора и рекламодателей:: mosgorsud-torrent[собачка]yandex.ru
cron