Торрент файл
скачать торрент магнет ссылка Добавлен: 11 мар 2017, 12:20
Размер: 7.62 ГБ
Сидеров: 120
Личеров: 48
Статус: (salma3)
Автор

СообщениеДобавлено: 11 мар 2017, 12:20 

В сети
Супермодератор
Аватара пользователя
Дата регистрации:
15 фев 2012, 16:44
Возраст: 28
Спасибо: 7285 / 2147
Сообщения: 70259
Год выхода: 2016
Жанр: Триллер, военный
Режиссер: Шон Эллис

В ролях: Джейми Дорнан, Киллиан Мёрфи, Брайан Каспе, Карел Гержманек, Хана Фрейкова, Шон Махон, Жан Хайек, Марчин Дорочиньский, Тоби Джонс

Описание: Картина рассказывает о ликвидации в годы Второй мировой войны одного из самых зловещих нацистских преступников, начальника Главного управления имперской безопасности третьего рейха Рейнхарда Гейдриха, который при жизни получил прозвище «Пражский мясник».



Страна: Чехия, Великобритания, Франция
Продолжительность: 02:00:33
Перевод: Любительский [одноголосый] (Виктор Рутилов)

Файл
Кодек: MPEG-2
Качество: DVD-9
Видео: MPEG2, NTSC 16:9 (720x480@853x480) VBR, 23,976 кадра/сек
Звук: Русский / Английский / Немецкий DD 5.1 (448 Kbps)


Title:
Size: 7.62 Gb ( 7 994 964 KBytes ) - DVD-9
Enabled regions: 1, 2, 3, 4, 5, 6, 7, 8
VTS_01 :
Play Length: 02:00:33+00:01:55
Video: NTSC 16:9 (720x480) VBR, Auto Pan&Scan
Audio:
Russian (Dolby AC3, 6 ch)
English (Dolby AC3, 6 ch)
Deutsch (Dolby AC3, 6 ch)
Menu Video:
NTSC 4:3 (720x480) VBR
Menu English Language Unit :
Root Menu
Общее
Полное имя : G:ААА2АнтропоидVIDEO_TSVTS_01_1.VOB
Формат : MPEG-PS
Размер файла : 1000 Мбайт
Продолжительность : 16 м.
Режим общего битрейта : Переменный
Общий поток : 8272 Кбит/сек
Видео
Идентификатор : 224 (0xE0)
Формат : MPEG Video
Версия формата : Version 2
Профиль формата : Main@Main
Параметр BVOP формата : Да
Параметр матрицы формата : По умолчанию
Параметр GOP формата : M=3, N=12
Продолжительность : 16 м.
Вид битрейта : Переменный
Битрейт : 6764 Кбит/сек
Максимальный битрейт : 8320 Кбит/сек
Ширина : 720 пикселей
Высота : 480 пикселей
Соотношение сторон : 16:9
Частота кадров : 23,976 кадра/сек
Стандарт вещания : NTSC
Цветовое пространство : YUV
Субдискретизация насыщенности : 4:2:0
Битовая глубина : 8 бит
Тип развёртки : Прогрессивная
Порядок развёртки : 2:3 Pulldown
Метод сжатия : С потерями
Бит/(Пиксели*Кадры) : 0.816
TimeCode_FirstFrame : 00:00:00;00
TimeCode_Source : Group of pictures header
Размер потока : 818 Мбайт (82%)
Аудио #1
Идентификатор : 189 (0xBD)-128 (0x80)
Формат : AC-3
Формат/Информация : Audio Coding 3
Расширение режима : CM (complete main)
Параметр Endianness формата : Big
Режим смешивания : DVD-Video
Продолжительность : 16 м.
Вид битрейта : Постоянный
Битрейт : 448 Кбит/сек
Каналы : 6 каналов
Расположение каналов : Front: L C R, Side: L R, LFE
Частота : 48,0 КГц
Битовая глубина : 16 бит
Метод сжатия : С потерями
Размер потока : 54,2 Мбайт (5%)
Аудио #2
Идентификатор : 189 (0xBD)-129 (0x81)
Формат : AC-3
Формат/Информация : Audio Coding 3
Расширение режима : CM (complete main)
Параметр Endianness формата : Big
Режим смешивания : DVD-Video
Продолжительность : 16 м.
Вид битрейта : Постоянный
Битрейт : 448 Кбит/сек
Каналы : 6 каналов
Расположение каналов : Front: L C R, Side: L R, LFE
Частота : 48,0 КГц
Битовая глубина : 16 бит
Метод сжатия : С потерями
Размер потока : 54,2 Мбайт (5%)
Аудио #3
Идентификатор : 189 (0xBD)-130 (0x82)
Формат : AC-3
Формат/Информация : Audio Coding 3
Расширение режима : CM (complete main)
Параметр Endianness формата : Big
Режим смешивания : DVD-Video
Продолжительность : 16 м.
Вид битрейта : Постоянный
Битрейт : 448 Кбит/сек
Каналы : 6 каналов
Расположение каналов : Front: L C R, Side: L R, LFE
Частота : 48,0 КГц
Битовая глубина : 16 бит
Метод сжатия : С потерями
Размер потока : 54,2 Мбайт (5%)



Релиз:


_________________
Проголосуй за трекер Открытый торрент трекер - RUS-MEDIA.ORG

Проголосуй Открытый торрент трекер - RUS-MEDIA.ORG


Вернуться к началу
 Профиль Отправить личное сообщение  
 
   Похожие торренты   Автор   Торрент   Размер 
В этой теме нет новых непрочитанных сообщений. Антропоид / Anthropoid [Триллер, военный, биография, 2016] HDRip-AVC, Dub[iTunes]

salma3

428 | 26

744.38 МБ

В этой теме нет новых непрочитанных сообщений. Антропоид / Anthropoid [триллер, военный, биография, история, 2016] BDRip 720p, Mvo

marya111

845 | 44

5.22 ГБ

В этой теме нет новых непрочитанных сообщений. Антропоид / Anthropoid [триллер, военный, биография, история, 2016] BDRip, Dub [iTunes]

salma3

0 | 0

2.13 ГБ

В этой теме нет новых непрочитанных сообщений. Антропоид / Anthropoid [триллер, военный, биография, история, 2016] BDRip, Dub [iTunes]

salma3

0 | 0

1.41 ГБ

В этой теме нет новых непрочитанных сообщений. 13 часов: Тайные солдаты Бенгази / 13 Hours [боевик, триллер, драма, военный, 2016] DVD9, Dub [Лицензия]

salma3

33 | 10

7.35 ГБ

В этой теме нет новых непрочитанных сообщений. Питомец / Pet [Триллер, ужасы, 2016] DVD9, Dvo

salma3

0 | 0

5.29 ГБ

В этой теме нет новых непрочитанных сообщений. Отмель / The Shallows [Ужасы, триллер, драма, 2016] DVD9, Dub [Custom]

salma3

50 | 17

5.87 ГБ


Начать новую тему Ответить на тему  [ 1 сообщение ] 




Для Мосгорсуда, Роскомнадзора и рекламодателей:: mosgorsud-torrent[собачка]yandex.ru
cron