Торрент файл
скачать торрент магнет ссылка Добавлен: 06 мар 2017, 10:45
Размер: 7.42 ГБ
Сидеров: 39
Личеров: 20
Статус: (salma3)
Автор

СообщениеДобавлено: 06 мар 2017, 10:45 

Не в сети
Супермодератор
Аватара пользователя
Дата регистрации:
15 фев 2012, 16:44
Возраст: 29
Спасибо: 7328 / 2147
Сообщения: 73790
Год выпуска: 2016
Жанр: Фантастика, триллер, драма, детектив
Режиссер: Дени Вильнёв

Актеры: Эми Адамс, Джереми Реннер, Форест Уитакер, Майкл Стулбарг, Марк О’Брайэн, Ци Ма, Эбигейл Пнёвски, Джулия Скарлет Дэн, Джейдин Мэлоун, Фрэнк Скорпион

Описание фильма:
Неожиданное появление неопознанных летающих объектов в разных точках планеты повергает мир в трепет. Намерения пришельцев не ясны — вооруженные силы всего мира приведены в полную боевую готовность, а лучшие умы человечества пытаются понять, как разговаривать с непрошенными гостями. Правительство обращается за помощью к лингвисту Луизе Бэнкс и физику Яну Доннели, чтобы предотвратить глобальную катастрофу и найти общий язык с пришельцами. Отныне судьба человечества находится в их руках.



Производство: США
Продолжительность: 01:56:16
Перевод: Профессиональный (полное дублирование) + Любительский (многоголосый, закадровый) Paradox & Omskbird records + Авторский (одноголосый, закадровый) [А.Матвеев, Д.Есарев]
Субтитры: Английские, русские

Качество видео: DVD9
Видео: MPEG-2, 720x480@853x480 (NTSC 16:9), ~5800 Кбит/сек
Аудио 1: AC3 5.1, 448 Кбит/сек [Английский - оригинал]
Аудио 2: AC3 5.1, 448 Кбит/сек [Русский - дублированный]
Аудио 3: AC3 5.1, 384 Кбит/сек [Русский - многоголосый закадровый]
Аудио 4: AC3 5.1, 448 Кбит/сек [Русский - одноголосый закадровый (А.Матвеев)]
Аудио 5: AC3 5.1, 448 Кбит/сек [Русский - одноголосый закадровый (Д.Есарев)]
Доп. материалы: Ролики

Title: Arrival (2016) DVD9 NTSC
Size: 7.42 Gb ( 7 779 700,00 KBytes ) - DVD-9
Enabled regions: 1, 2, 3, 4, 5, 6, 7, 8
VTS_01 :
Play Length: 01:56:16
Video: NTSC 16:9 (720x480) VBR, Auto Letterboxed
Audio:
English (Dolby AC3, 6 ch)
Russian (Dolby AC3, 6 ch)
Russian (Dolby AC3, 6 ch)
Russian (Dolby AC3, 6 ch)
Russian (Dolby AC3, 6 ch)
Subtitles:
English
Russian
Russian
VTS_02 :
Play Length: 00:00:00+00:00:00
Video: NTSC 16:9 (720x480) VBR, Auto Pan&Scan
Audio:
Not specified (Dolby AC3, 2 ch)
VTS_03 :
Play Length: 00:00:00
Video: NTSC 16:9 (720x480) VBR, Auto Letterboxed
Audio:
Not specified (Dolby AC3, 2 ch)
VTS_04 :
Play Length: 00:00:01+00:00:01+{00:00:00}+{00:00:00}+{00:00:00}
Video: NTSC 16:9 (720x480) VBR, Auto Letterboxed
Audio:
Not specified (Dolby AC3, 2 ch)
VTS_05 :
Play Length: 00:00:00+{00:00:00}+{00:00:00}+{00:00:00}+{00:00:00}
Video: NTSC 16:9 (720x480) VBR, Auto Letterboxed
VTS_06 :
Play Length: 00:00:00+{00:00:00}+{00:00:00}+{00:00:00}+{00:00:00}
Video: NTSC 16:9 (720x480) VBR, Auto Letterboxed
VTS_07 :
Play Length: 00:14:27+{00:09:29}
Video: NTSC 16:9 (720x480) VBR, Auto Letterboxed
Audio:
English (Dolby AC3, 6 ch)
VTS_08 :
Play Length: 00:00:00+{00:00:00}
Video: NTSC 16:9 (720x480) VBR, Auto Letterboxed
VTS_09 :
Play Length: 00:00:00+{00:00:00}+{00:00:00}
Video: NTSC 16:9 (720x480) VBR, Auto Letterboxed
VTS_10 :
Play Length: 00:00:00+00:00:00+{00:00:00}+{00:00:00}+{00:00:00}+{00:00:00}
Video: NTSC 16:9 (720x480) VBR, Auto Pan&Scan
Audio:
Not specified (Dolby AC3, 2 ch)
VTS_11 :
Play Length: 00:00:00
Video: NTSC 16:9 (720x480) VBR, Auto Letterboxed
VTS_12 :
Play Length: 00:00:24
Video: NTSC 16:9 (720x480) VBR, Auto Pan&Scan
Audio:
Not specified (Dolby AC3, 2 ch)
VTS_13 :
Play Length: 00:00:00+00:00:00+00:00:00+00:00:00+{00:00:00}+{00:00:00}+{00:00:00}+{00:00:00}+{00:00:00}+{00:00:00}+{00:00:00}+{00:00:00}+{00:00:00}+{00:00:00}+{00:00:00}+{00:00:00}+{00:00:00}+{00:00:00}
Video: NTSC 16:9 (720x480) VBR, Auto Pan&Scan
Audio:
Not specified (Dolby AC3, 2 ch)
* Menus Information *
VIDEO_TS Menu
Video:
NTSC 16:9 (720x480) VBR
Auto Pan&Scan
English Language Unit :
Title Menu
VTS_01 Menu
Video:
NTSC 16:9 (720x480) VBR
Auto Pan&Scan
Audio:
Not specified (Dolby AC3, 2 ch)
English Language Unit :
Root Menu
Subpicture Menu
Audio Menu
Angle menu
Chapter (PTT) Menu
VTS_02 Menu
Video:
NTSC 4:3 (720x480) VBR
Auto Pan&Scan, Auto Letterboxed
English Language Unit :
Root Menu
Angle menu
VTS_03 Menu
Video:
NTSC 4:3 (720x480) VBR
Auto Pan&Scan, Auto Letterboxed
English Language Unit :
Root Menu
Angle menu
VTS_04 Menu
Video:
NTSC 4:3 (720x480) VBR
Auto Pan&Scan, Auto Letterboxed
English Language Unit :
Root Menu
Angle menu
VTS_05 Menu
Video:
NTSC 16:9 (720x480) VBR
Auto Pan&Scan
English Language Unit :
Root Menu
Angle menu
VTS_06 Menu
Video:
NTSC 16:9 (720x480) VBR
Auto Pan&Scan
English Language Unit :
Root Menu
Angle menu
VTS_07 Menu
Video:
NTSC 4:3 (720x480) VBR
Auto Pan&Scan, Auto Letterboxed
English Language Unit :
Root Menu
Angle menu
VTS_08 Menu
Video:
NTSC 16:9 (720x480) VBR
Auto Pan&Scan
English Language Unit :
Root Menu
Angle menu
VTS_09 Menu
Video:
NTSC 16:9 (720x480) VBR
Auto Pan&Scan
English Language Unit :
Root Menu
Angle menu
VTS_10 Menu
Video:
NTSC 4:3 (720x480) VBR
Auto Pan&Scan, Auto Letterboxed
English Language Unit :
Root Menu
Angle menu
VTS_11 Menu
Video:
NTSC 16:9 (720x480) VBR
Auto Pan&Scan
English Language Unit :
Root Menu
Angle menu
VTS_12 Menu
Video:
NTSC 4:3 (720x480) VBR
Auto Pan&Scan, Auto Letterboxed
English Language Unit :
Root Menu
Angle menu
VTS_13 Menu
Video:
NTSC 4:3 (720x480) VBR
Auto Pan&Scan, Auto Letterboxed
English Language Unit :
Root Menu
Angle menu
Общее
Полное имя : F:ВидеоArrival (2016) DVD9 NTSCVIDEO_TSVTS_01_1.VOB
Формат : MPEG-PS
Размер файла : 1024 Мбайт
Продолжительность : 17 м.
Режим общего битрейта : Переменный
Общий поток : 8195 Кбит/сек
Библиотека кодирования : encoded by TMPGEnc (ver. 2.524.63.181)
Видео
Идентификатор : 224 (0xE0)
Формат : MPEG Video
Версия формата : Version 2
Профиль формата : Main@Main
Параметр BVOP формата : Да
Параметр матрицы формата : Выборочная
Параметр GOP формата : Variable
Продолжительность : 17 м.
Вид битрейта : Переменный
Битрейт : 5856 Кбит/сек
Ширина : 720 пикселей
Высота : 480 пикселей
Соотношение сторон : 16:9
Частота кадров : 23,976 (24000/1001) кадра/сек
Стандарт вещания : NTSC
Цветовое пространство : YUV
Субдискретизация насыщенности : 4:2:0
Битовая глубина : 8 бит
Тип развёртки : Прогрессивная
Порядок развёртки : 2:3 Pulldown
Метод сжатия : С потерями
Бит/(Пиксели*Кадры) : 0.707
Временной код первого кадра : 00:00:00:00
Оригинал временного кода : Group of pictures header
Размер потока : 732 Мбайт (71%)
Библиотека кодирования : TMPGEnc 2.524.63.181
Основные цвета : BT.601 NTSC
Характеристики трансфера : BT.601
Коэффициенты матрицы : BT.601
Аудио #1
Идентификатор : 189 (0xBD)-128 (0x80)
Формат : AC-3
Формат/Информация : Audio Coding 3
Расширение режима : CM (complete main)
Параметр Endianness формата : Big
Режим смешивания : DVD-Video
Продолжительность : 17 м.
Вид битрейта : Постоянный
Битрейт : 448 Кбит/сек
Каналы : 6 каналов
Расположение каналов : Front: L C R, Side: L R, LFE
Частота : 48,0 КГц
Частота кадров : 31,250 кадров/сек (1536 spf)
Метод сжатия : С потерями
Размер потока : 56,0 Мбайт (5%)
Аудио #2
Идентификатор : 189 (0xBD)-129 (0x81)
Формат : AC-3
Формат/Информация : Audio Coding 3
Расширение режима : CM (complete main)
Параметр Endianness формата : Big
Режим смешивания : DVD-Video
Продолжительность : 17 м.
Вид битрейта : Постоянный
Битрейт : 448 Кбит/сек
Каналы : 6 каналов
Расположение каналов : Front: L C R, Side: L R, LFE
Частота : 48,0 КГц
Частота кадров : 31,250 кадров/сек (1536 spf)
Метод сжатия : С потерями
Размер потока : 56,0 Мбайт (5%)
Аудио #3
Идентификатор : 189 (0xBD)-130 (0x82)
Формат : AC-3
Формат/Информация : Audio Coding 3
Расширение режима : CM (complete main)
Параметр Endianness формата : Big
Режим смешивания : DVD-Video
Продолжительность : 17 м.
Вид битрейта : Постоянный
Битрейт : 384 Кбит/сек
Каналы : 6 каналов
Расположение каналов : Front: L C R, Side: L R, LFE
Частота : 48,0 КГц
Частота кадров : 31,250 кадров/сек (1536 spf)
Метод сжатия : С потерями
Размер потока : 48,0 Мбайт (5%)
Аудио #4
Идентификатор : 189 (0xBD)-131 (0x83)
Формат : AC-3
Формат/Информация : Audio Coding 3
Расширение режима : CM (complete main)
Параметр Endianness формата : Big
Режим смешивания : DVD-Video
Продолжительность : 17 м.
Вид битрейта : Постоянный
Битрейт : 448 Кбит/сек
Каналы : 6 каналов
Расположение каналов : Front: L C R, Side: L R, LFE
Частота : 48,0 КГц
Частота кадров : 31,250 кадров/сек (1536 spf)
Метод сжатия : С потерями
Размер потока : 56,0 Мбайт (5%)
Аудио #5
Идентификатор : 189 (0xBD)-132 (0x84)
Формат : AC-3
Формат/Информация : Audio Coding 3
Расширение режима : CM (complete main)
Параметр Endianness формата : Big
Режим смешивания : DVD-Video
Продолжительность : 17 м.
Вид битрейта : Постоянный
Битрейт : 448 Кбит/сек
Каналы : 6 каналов
Расположение каналов : Front: L C R, Side: L R, LFE
Частота : 48,0 КГц
Частота кадров : 31,250 кадров/сек (1536 spf)
Метод сжатия : С потерями
Размер потока : 56,0 Мбайт (5%)
Текст #1
Идентификатор : 224 (0xE0)-CC3
Формат : EIA-608
Режим смешивания, доп. информация : Muxed in Video #1
Вид битрейта : Постоянный
Размер потока : 0,00 байт (0%)
Текст #2
Идентификатор : 189 (0xBD)-32 (0x20)
Формат : RLE
Формат/Информация : Run-length encoding
Режим смешивания : DVD-Video
Текст #3
Идентификатор : 189 (0xBD)-33 (0x21)
Формат : RLE
Формат/Информация : Run-length encoding
Режим смешивания : DVD-Video
Меню
Исходником послужил лицензионный DVD9 из-за рубежа. Французскую звуковую дорожку заменил на дубляж вместе с субтитрами (форсированные субтитры надо включать с пульта или в настройках плеера). Испанскую звуковую дорогу заменил на MVO от Paradox & Omskbird records. Английскую описательную заменил на авторскую от Матвеева. Команду кнопки DVD меню которая отвечала за субтитры заменил на команду звуковой дороги от Есарева.
Предупреждающие надписи скрыл.
Использовались программы: MKVExtractGUI2, PgcDemux, DVD ReMake Pro, Adobe PhotoShop, MuxMan, MaestroSBT, DVDSubEdit.


_________________
Проголосуй за трекер Открытый торрент трекер - RUS-MEDIA.ORG

Проголосуй Открытый торрент трекер - RUS-MEDIA.ORG


Вернуться к началу
 Профиль Отправить личное сообщение  
 
   Похожие торренты   Автор   Торрент   Размер 
В этой теме нет новых непрочитанных сообщений. Прибытие / Arrival [фантастика, триллер, драма, детектив, экранизация, 2016] WEB-DLRip, Mvo

marya111

2 | 2

1.39 ГБ

В этой теме нет новых непрочитанных сообщений. Прибытие / Arrival [фантастика, триллер, драма, детектив, 2016] HDRip, Dub [iTunes]

Dracon

246 | 143

1.46 ГБ

В этой теме нет новых непрочитанных сообщений. Прибытие / Arrival [фантастика, триллер, драма, детектив, 2016] Blu-Ray EUR 1080p, Dub+Sub [Лицензия]

salma3

119 | 134

40.25 ГБ

В этой теме нет новых непрочитанных сообщений. Прибытие / Arrival [фантастика, триллер, драма, детектив, 2016] WEB-DL 720p, Dub [чистый звук]

salma3

640 | 191

3.86 ГБ

В этой теме нет новых непрочитанных сообщений. Прибытие / Arrival [фантастика, триллер, драма, детектив, 2016] BDRip 1080p, Dub+Sub [Лицензия]

salma3

375 | 147

9.75 ГБ

В этой теме нет новых непрочитанных сообщений. Прибытие / Arrival [фантастика, триллер, драма, детектив, 2016] BDRip 720p, Dub+Sub [Лицензия]

salma3

179 | 62

7.08 ГБ

В этой теме нет новых непрочитанных сообщений. Прибытие / Arrival (фантастика, триллер, драма, детектив, 2016) BDRip 720p от HELLYWOOD | iTunes, A

marya111

1115 | 199

5.55 ГБ


Начать новую тему Ответить на тему  [ 1 сообщение ] 




Для Мосгорсуда, Роскомнадзора и рекламодателей:: mosgorsud-torrent[собачка]yandex.ru
cron