Торрент файл
скачать торрент магнет ссылка Добавлен: 02 фев 2017, 12:12
Размер: 4.37 ГБ
Сидеров: 32
Личеров: 31
Статус: (salma3)
Автор

СообщениеДобавлено: 02 фев 2017, 12:12 

Не в сети
Супермодератор
Аватара пользователя
Дата регистрации:
15 фев 2012, 16:44
Возраст: 28
Спасибо: 7290 / 2147
Сообщения: 70562
Год выпуска: 2016
Жанр: Фэнтези, приключения, семейный
Режиссер: Стивен Спилберг

Актеры: Марк Райлэнс, Руби Барнхилл, Пенелопа Уилтон, Джемейн Клемент, Ребекка Холл, Рейф Сполл, Билл Хейдер, Оулавюр Дарри Оулафссон, Адам Годли, Майкл Адамуэйт

Описание:
В центре истории девочка по имени Софи, которая не смогла заснуть до полуночи и в окошко увидела огромного великана, который подходил к соседним домам и начинал дуть в окна спален. В полном соответствии со старинными поверьями и детскими страшилками, великан увидел Софи и унес к себе домой, в страну великанов.
Как оказалось, он в этой самой стране был единственным добрым великаном: действуя в обстановке строжайшей секретности, он коллекционировал хорошие сны, которые по ночам раздавал детям. Уши у него устроены таким образом, что он слышит, что и о чем снится ребятам, и никогда не позволяет им видеть кошмары.



Производство: Великобритания, Канада, США
Продолжительность: 01:57:31
Перевод: Дублированный
Субтитры: Английские, русские

Качество видео: DVD5
Видео: MPEG-2, 720x480@853x480 (NTSC 16:9), ~4500 Кбит/сек
Аудио 1: AC3 5.1, 448 Кбит/сек [Английский - оригинал]
Аудио 2: AC3 5.1, 448 Кбит/сек [Русский - дублированный]
Title: The BFG (2016) DVD5 NTSC
Size: 4.37 Gb ( 4 581 138,00 KBytes ) - DVD-5
Enabled regions: 1, 2, 3, 4, 5, 6, 7, 8
VTS_01 :
Play Length: 01:57:31
Video: NTSC 16:9 (720x480) VBR, Auto Letterboxed
Audio:
English (Dolby AC3, 6 ch)
Russian (Dolby AC3, 6 ch)
Subtitles:
English
Russian
Russian
VTS_02 :
Play Length: 00:00:01
Video: NTSC 16:9 (720x480) VBR, Auto Letterboxed
* Menus Information *
VIDEO_TS Menu
Video:
NTSC 16:9 (720x480) VBR
Auto Pan&Scan
Audio:
Not specified (Dolby AC3, 2 ch)
English Language Unit :
Title Menu
VTS_01 Menu
Video:
NTSC 4:3 (720x480) VBR
Auto Pan&Scan, Auto Letterboxed
English Language Unit :
Root Menu
Angle menu
VTS_02 Menu
Video:
NTSC 16:9 (720x480) VBR
Auto Pan&Scan
Audio:
Not specified (Dolby AC3, 2 ch)
English Language Unit :
Root Menu
Angle menu
Общее
Полное имя : G:ВидеоThe BFG (2016) DVD5 NTSCVIDEO_TSVTS_01_1.VOB
Формат : MPEG-PS
Размер файла : 1024 Мбайт
Продолжительность : 26 м.
Режим общего битрейта : Переменный
Общий поток : 5498 Кбит/сек
Видео
Идентификатор : 224 (0xE0)
Формат : MPEG Video
Версия формата : Version 2
Профиль формата : Main@Main
Параметр BVOP формата : Да
Параметр матрицы формата : Выборочная
Параметр GOP формата : M=3, N=12
Продолжительность : 26 м.
Вид битрейта : Переменный
Битрейт : 4493 Кбит/сек
Максимальный битрейт : 8066 Кбит/сек
Ширина : 720 пикселей
Высота : 480 пикселей
Соотношение сторон : 16:9
Частота кадров : 23,976 (24000/1001) кадра/сек
Цветовое пространство : YUV
Субдискретизация насыщенности : 4:2:0
Битовая глубина : 8 бит
Тип развёртки : Прогрессивная
Порядок развёртки : 2:3 Pulldown
Метод сжатия : С потерями
Бит/(Пиксели*Кадры) : 0.542
Временной код первого кадра : 00:00:00:00
Оригинал временного кода : Group of pictures header
GOP, открыто/закрыто : Открыто
GOP, открыто/закрыто на первом кадре : Закрыто
Размер потока : 837 Мбайт (82%)
Аудио #1
Идентификатор : 189 (0xBD)-128 (0x80)
Формат : AC-3
Формат/Информация : Audio Coding 3
Расширение режима : CM (complete main)
Параметр Endianness формата : Big
Режим смешивания : DVD-Video
Продолжительность : 26 м.
Вид битрейта : Постоянный
Битрейт : 448 Кбит/сек
Каналы : 6 каналов
Расположение каналов : Front: L C R, Side: L R, LFE
Частота : 48,0 КГц
Частота кадров : 31,250 кадров/сек (1536 spf)
Метод сжатия : С потерями
Размер потока : 83,4 Мбайт (8%)
Аудио #2
Идентификатор : 189 (0xBD)-130 (0x82)
Формат : AC-3
Формат/Информация : Audio Coding 3
Расширение режима : CM (complete main)
Параметр Endianness формата : Big
Режим смешивания : DVD-Video
Продолжительность : 26 м.
Вид битрейта : Постоянный
Битрейт : 448 Кбит/сек
Каналы : 6 каналов
Расположение каналов : Front: L C R, Side: L R, LFE
Частота : 48,0 КГц
Частота кадров : 31,250 кадров/сек (1536 spf)
Метод сжатия : С потерями
Размер потока : 83,4 Мбайт (8%)
Текст #1
Идентификатор : 189 (0xBD)-32 (0x20)
Формат : RLE
Формат/Информация : Run-length encoding
Режим смешивания : DVD-Video
Продолжительность : 26 м.
Текст #2
Идентификатор : 189 (0xBD)-33 (0x21)
Формат : RLE
Формат/Информация : Run-length encoding
Режим смешивания : DVD-Video
Меню
Продолжительность : 26 м.
Исходник: Большой и добрый великан / The BFG (2016) DVD9 | Custom
Удалены: доп. материалы, описательная звуковая дорожка (в меню кнопки затёрты).
Команды диска переписаны заново, оставлено два VTS.
Видео сжато на 27,4%
Меню: статичное, недействующие кнопки затерты и закрыты.
Обработка и сжатие: DVD ReMake Pro + DVD Rebuilder + CCE SP2 [7 проходов] + Работа с меню (Adobe PhotoShop и MuxMan).


_________________
Проголосуй за трекер Открытый торрент трекер - RUS-MEDIA.ORG

Проголосуй Открытый торрент трекер - RUS-MEDIA.ORG


Вернуться к началу
 Профиль Отправить личное сообщение  
 
   Похожие торренты   Автор   Торрент   Размер 
В этой теме нет новых непрочитанных сообщений. Большой и добрый великан / The BFG [Фэнтези, приключения, семейный, 2016] Blu-Ray EUR, Dub [Лицензия]

salma3

39 | 35

39.63 ГБ

В этой теме нет новых непрочитанных сообщений. Большой и добрый великан / The BFG [фэнтези, приключения, семейный, 2016] BDRip-AVC, Dub [iTunes]

salma3

68 | 20

2.19 ГБ

В этой теме нет новых непрочитанных сообщений. Поглощён Большой и добрый великан / The BFG (фэнтези, приключения, семейный, 2016) WEB-DLRip | Звук с TS Данный торрент является блокированным, причина: поглощённый торрент

marya111

0 | 0

1.37 ГБ

В этой теме нет новых непрочитанных сообщений. Большой и добрый великан / The BFG [фэнтези, приключения, семейный, 2016] HDRip, Dub [iTunes]

salma3

187 | 37

1.4 ГБ

В этой теме нет новых непрочитанных сообщений. Недооформлен Большой и добрый великан / The BFG (фэнтези, приключения, семейный, 2016) WEB-DLRip | Line Данный торрент является блокированным, причина: недооформленный торрент

marya111

0 | 0

1.37 ГБ

В этой теме нет новых непрочитанных сообщений. Большой и добрый великан / The BFG (Фэнтези, экранизация, приключения, семейный, 2016) BDRip-AVC | Line

marya111

99 | 9

965.28 МБ

В этой теме нет новых непрочитанных сообщений. Большой и добрый великан / The BFG [фэнтези, приключения, семейный, 2016] WEB-DL 1080p, Dub [чистый звук]

salma3

602 | 138

4.37 ГБ


Начать новую тему Ответить на тему  [ 1 сообщение ] 




Для Мосгорсуда, Роскомнадзора и рекламодателей:: mosgorsud-torrent[собачка]yandex.ru
cron