Торрент файл
скачать торрент магнет ссылка Добавлен: 04 янв 2017, 12:48
Размер: 4.37 ГБ
Сидеров: 109
Личеров: 69
Статус: (salma3)
Автор

СообщениеДобавлено: 04 янв 2017, 12:48 

В сети
Супермодератор
Аватара пользователя
Дата регистрации:
15 фев 2012, 16:44
Возраст: 27
Спасибо: 5700 / 2108
Сообщения: 24766
Год выпуска: 2016
Производство: США
Жанр: Боевик, приключения, вестерн
Режиссер: Антуан Фукуа

Актеры: Дензел Вашингтон, Крис Пратт, Итан Хоук, Винсент Д’Онофрио, Ли Бён-хон, Мануэль Рульфо, Мартин Сенсмейер, Хейли Беннетт, Питер Сарсгаард, Люк Граймс

Описание фильма:
Семеро отважных искателей приключений встают на защиту жителей маленького городка, угнетаемого бандой грабителей.

Перевод: Дублированный
Субтитры: Английские, русские

Дата мировой премьеры: 8 сентября 2016
Дата премьеры в России: 22 сентября 2016, «WDSSPR»


Продолжительность: 02:12:42
Качество видео: DVD5

Видео: MPEG-2, 720x480@853x480 (NTSC 16:9), ~4000 Кбит/сек
Аудио 1: AC3 5.1, 448 Кбит/сек [Английский - оригинал]
Аудио 2: AC3 5.1, 384 Кбит/сек [Русский - дублированный]

Title: The Magnificent Seven (2016) DVD5 NTSC
Size: 4.37 Gb ( 4 584 750,00 KBytes ) - DVD-5
Enabled regions: 1, 2, 3, 4, 5, 6, 7, 8

VTS_01 :
Play Length: 02:12:42
Video: NTSC 16:9 (720x480) VBR, Auto Letterboxed
Audio:
English (Dolby AC3, 6 ch)
Russian (Dolby AC3, 6 ch)
Subtitles:
English
English
Russian
Russian

* Menus Information *

VIDEO_TS Menu
Video:
NTSC 16:9 (720x480) VBR
Auto Pan&Scan
English Language Unit :
Title Menu

VTS_01 Menu
Video:
NTSC 16:9 (720x480) VBR
Auto Pan&Scan
Audio:
Not specified (Dolby AC3, 2 ch)
English Language Unit :
Root Menu
Chapter (PTT) Menu
Общее
Полное имя : G:ВидеоThe Magnificent Seven (2016) DVD5 NTSCVIDEO_TSVTS_01_2.VOB
Формат : MPEG-PS
Размер файла : 1024 Мбайт
Продолжительность : 29 м.
Режим общего битрейта : Переменный
Общий поток : 4910 Кбит/сек

Видео
Идентификатор : 224 (0xE0)
Формат : MPEG Video
Версия формата : Version 2
Профиль формата : Main@Main
Параметр BVOP формата : Да
Параметр матрицы формата : Выборочная
Параметр GOP формата : Variable
Продолжительность : 29 м.
Вид битрейта : Переменный
Битрейт : 3980 Кбит/сек
Максимальный битрейт : 5832 Кбит/сек
Ширина : 720 пикселей
Высота : 480 пикселей
Соотношение сторон : 16:9
Частота кадров : 23,976 (24000/1001) кадра/сек
Цветовое пространство : YUV
Субдискретизация насыщенности : 4:2:0
Битовая глубина : 8 бит
Тип развёртки : Прогрессивная
Порядок развёртки : 2:3 Pulldown
Метод сжатия : С потерями
Бит/(Пиксели*Кадры) : 0.480
Временной код первого кадра : 00:31:57:01
Оригинал временного кода : Group of pictures header
GOP, открыто/закрыто : Открыто
Размер потока : 830 Мбайт (81%)

Аудио #1
Идентификатор : 189 (0xBD)-128 (0x80)
Формат : AC-3
Формат/Информация : Audio Coding 3
Расширение режима : CM (complete main)
Параметр Endianness формата : Big
Режим смешивания : DVD-Video
Продолжительность : 29 м.
Вид битрейта : Постоянный
Битрейт : 448 Кбит/сек
Каналы : 6 каналов
Расположение каналов : Front: L C R, Side: L R, LFE
Частота : 48,0 КГц
Частота кадров : 31,250 кадров/сек (1536 spf)
Метод сжатия : С потерями
Задержка видео : -281 мс.
Размер потока : 93,4 Мбайт (9%)

Аудио #2
Идентификатор : 189 (0xBD)-129 (0x81)
Формат : AC-3
Формат/Информация : Audio Coding 3
Расширение режима : CM (complete main)
Параметр Endianness формата : Big
Режим смешивания : DVD-Video
Продолжительность : 29 м.
Вид битрейта : Постоянный
Битрейт : 384 Кбит/сек
Каналы : 6 каналов
Расположение каналов : Front: L C R, Side: L R, LFE
Частота : 48,0 КГц
Частота кадров : 31,250 кадров/сек (1536 spf)
Метод сжатия : С потерями
Задержка видео : -281 мс.
Размер потока : 80,1 Мбайт (8%)

Текст #1
Идентификатор : 189 (0xBD)-32 (0x20)
Формат : RLE
Формат/Информация : Run-length encoding
Режим смешивания : DVD-Video

Текст #2
Идентификатор : 189 (0xBD)-33 (0x21)
Формат : RLE
Формат/Информация : Run-length encoding
Режим смешивания : DVD-Video

Меню

Исходник: Великолепная семерка / The Magnificent Seven (2016) DVD9 | D, А | Custom
Удалены: доп материалы, авторская звуковая дорожка (в меню кнопки затёрты).
Команды диска переписаны заново, оставлен один VTS.
Видео сжато на 14,0%
Меню: статичное, недействующие кнопки затерты и закрыты.
Обработка и сжатие: DVD ReMake Pro + DVD Rebuilder + CCE SP2 [7 проходов] + Работа с меню (Adobe PhotoShop и MuxMan).


_________________
Проголосуй за трекер Открытый торрент трекер - RUS-MEDIA.ORG




реклама партнёра


Вернуться к началу
 Профиль Отправить личное сообщение  
 
   Похожие торренты   Автор   Торрент   Размер 
В этой теме нет новых непрочитанных сообщений. Великолепная семерка / The Magnificent Seven (боевик, приключения, вестерн, 2016) BDRip-AVC | A

marya111

132 | 23

744.73 МБ

В этой теме нет новых непрочитанных сообщений. Великолепная семерка / The Magnificent Seven [боевик, приключения, вестерн, 2016] BDRip-AVC, Avo

salma3

929 | 67

2.18 ГБ

В этой теме нет новых непрочитанных сообщений. Великолепная семерка / The Magnificent Seven [боевик, приключения, вестерн, 2016] BDRip, Avo

salma3

4072 | 170

1.46 ГБ

В этой теме нет новых непрочитанных сообщений. Великолепная семерка / The Magnificent Seven [вестерн, боевик, приключения, 2016] BDRip, Dub [Лицензия]

salma3

4003 | 1244

1.46 ГБ

В этой теме нет новых непрочитанных сообщений. Великолепная семерка / The Magnificent Seven [Боевик, вестерн, приключения, 2016] BDRip 1080p, Avo

salma3

490 | 76

11.46 ГБ

В этой теме нет новых непрочитанных сообщений. Великолепная семерка / The Magnificent Seven ( Боевик, вестерн, приключения, 2016) HDRip от MegaPeer | A

marya111

144 | 28

794.3 МБ

В этой теме нет новых непрочитанных сообщений. Великолепная семерка / The Magnificent Seven [вестерн, боевик, приключения, 2016] HDRip, Dub [Лицензия]

salma3

1158 | 94

1.37 ГБ


Начать новую тему Ответить на тему  [ 1 сообщение ] 




Для Мосгорсуда, Роскомнадзора и рекламодателей:: mosgorsud-torrent[собачка]yandex.ru