Торрент файл
скачать торрент магнет ссылка Добавлен: 11 дек 2016, 13:57
Размер: 7.58 ГБ
Сидеров: 109
Личеров: 52
Статус: (salma3)
Автор

СообщениеДобавлено: 11 дек 2016, 13:57 

Не в сети
Супермодератор
Аватара пользователя
Дата регистрации:
15 фев 2012, 16:44
Возраст: 28
Спасибо: 6643 / 2146
Сообщения: 45769
Год выпуска: 2016
Производство: Великобритания, Китай, США
Жанр: Боевик, триллер
Режиссер: Пол Гринграсс
Продюсеры: Мэтт Дэймон, Грегори Гудман, Пол Гринграсс

Актеры: Мэтт Дэймон, Алисия Викандер, Томми Ли Джонс, Венсан Кассель, Джулия Стайлз, Риз Ахмед, Ато Эссонда, Скотт Шеперд, Билл Кэмп, Винцец Кифер

Описание фильма:
Мир на грани катастрофы, а значит пришло время ему вернуться. Неаполь, Мюнхен, Нью-Йорк — его имя знают повсюду. Элитный суперагент, лучший из лучших, даже в Лас-Вегасе игра пойдет по его правилам. Он — Джейсон Борн.

Перевод: Профессиональный (полное дублирование) + Авторский (одноголосый, закадровый) [Д.Есарев]

Субтитры: Английские, русские

Дата мировой премьеры: 3 июля 2016
Дата премьеры в России: 1 сентября 2016, «UPI»



Продолжительность: 02:03:06
Качество видео: DVD9
Видео: MPEG-2, 720x480@853x480 (NTSC 16:9), ~5300 Кбит/сек
Аудио 1: AC3 5.1, 448 Кбит/сек [Английский - оригинал]
Аудио 2: AC3 5.1, 448 Кбит/сек [Русский - дублированный]
Аудио 3: AC3 5.1, 448 Кбит/сек [Русский - одноголосый закадровый (Д.Есарев)]
Аудио 4: AC3 2.0, 192 Кбит/сек [Английский - описательный]
Доп. материалы: Возвращение Борна на Экраны, Прирождённый Боец, Побег из Афин, Кульминация в Лас-Вегасе, Ролики
Title: Jason Bourne (2016) DVD9 NTSC
Size: 7.58 Gb ( 7 944 630,00 KBytes ) - DVD-9
Enabled regions: 1, 2, 3, 4, 5, 6, 7, 8
VTS_01 :
Play Length: 00:00:25+00:00:01
Video: NTSC 16:9 (720x480) VBR, Auto Letterboxed
Audio:
Not specified (Dolby AC3, 2 ch)
VTS_02 :
Play Length: 02:03:06
Video: NTSC 16:9 (720x480) VBR, Auto Letterboxed
Audio:
English (Dolby AC3, 6 ch)
Russian (Dolby AC3, 6 ch)
Russian (Dolby AC3, 6 ch)
English (Dolby AC3, 2 ch)
Subtitles:
English
Russian
Russian
VTS_03 :
Play Length: 00:00:01+{00:00:01}+00:00:01+00:00:01+00:00:01+00:00:01+00:00:01+00:00:01
Video: NTSC 16:9 (720x480) VBR, Auto Pan&Scan
Audio:
Not specified (Dolby AC3, 2 ch)
VTS_04 :
Play Length: 00:00:01+{00:00:01}+00:00:02+00:00:02+00:00:02
Video: NTSC 16:9 (720x480) VBR, Auto Pan&Scan
Audio:
Not specified (Dolby AC3, 2 ch)
VTS_05 :
Play Length: 00:00:01
Video: NTSC 16:9 (720x480) VBR, Auto Letterboxed
Audio:
English (Dolby AC3, 2 ch)
VTS_06 :
Play Length: 00:00:01+{00:00:01}+00:00:02+{00:00:01}
Video: NTSC 16:9 (720x480) VBR, Auto Pan&Scan
Audio:
Not specified (Dolby AC3, 2 ch)
VTS_07 :
Play Length: 00:01:35
Video: NTSC 16:9 (720x480) VBR, Auto Letterboxed
Audio:
English (Dolby AC3, 2 ch)
VTS_08 :
Play Length: 00:01:30+00:01:05+00:00:35+00:00:48
Video: NTSC 16:9 (720x480) VBR, Auto Letterboxed
Audio:
English (Dolby AC3, 6 ch)
VTS_09 :
Play Length: 00:08:17+00:05:39
Video: NTSC 16:9 (720x480) VBR, Auto Letterboxed
Audio:
English (Dolby AC3, 2 ch)
Subtitles:
English
Russian
VTS_10 :
Play Length: 00:18:26+{00:08:00}+{00:04:33}+{00:06:04}
Video: NTSC 16:9 (720x480) VBR, Auto Letterboxed
Audio:
English (Dolby AC3, 2 ch)
Subtitles:
English
Russian
VTS_11 :
Play Length: 00:15:05+{00:06:41}+{00:08:29}
Video: NTSC 16:9 (720x480) VBR, Auto Letterboxed
Audio:
English (Dolby AC3, 2 ch)
Subtitles:
English
Russian
* Menus Information *
VIDEO_TS Menu
Video:
NTSC 16:9 (720x480) VBR
Auto Pan&Scan
English Language Unit :
Title Menu
VTS_01 Menu
Video:
NTSC 16:9 (720x480) VBR
Auto Letterboxed
English Language Unit :
Root Menu
Subpicture Menu
VTS_02 Menu
Video:
NTSC 16:9 (720x480) VBR
Auto Letterboxed
Audio:
Not specified (Dolby AC3, 2 ch)
English Language Unit :
Root Menu
Subpicture Menu
Angle menu
Chapter (PTT) Menu
VTS_03 Menu
Video:
NTSC 16:9 (720x480) VBR
Auto Letterboxed
English Language Unit :
Root Menu
VTS_04 Menu
Video:
NTSC 16:9 (720x480) VBR
Auto Letterboxed
English Language Unit :
Root Menu
VTS_05 Menu
Video:
NTSC 16:9 (720x480) VBR
Auto Letterboxed
English Language Unit :
Root Menu
VTS_06 Menu
Video:
NTSC 16:9 (720x480) VBR
Auto Letterboxed
English Language Unit :
Root Menu
VTS_07 Menu
Video:
NTSC 16:9 (720x480) VBR
Auto Letterboxed
English Language Unit :
Root Menu
Subpicture Menu
VTS_08 Menu
Video:
NTSC 16:9 (720x480) VBR
Auto Letterboxed
English Language Unit :
Root Menu
Subpicture Menu
VTS_09 Menu
Video:
NTSC 16:9 (720x480) VBR
Auto Letterboxed
English Language Unit :
Root Menu
VTS_10 Menu
Video:
NTSC 16:9 (720x480) VBR
Auto Letterboxed
English Language Unit :
Root Menu
VTS_11 Menu
Video:
NTSC 16:9 (720x480) VBR
Auto Letterboxed
English Language Unit :
Root Menu
Общее
Полное имя : F:ВидеоJason Bourne (2016) DVD9 NTSCVIDEO_TSVTS_02_4.VOB
Формат : MPEG-PS
Размер файла : 1024 Мбайт
Продолжительность : 20 м.
Режим общего битрейта : Переменный
Общий поток : 7040 Кбит/сек
Видео
Идентификатор : 224 (0xE0)
Формат : MPEG Video
Версия формата : Version 2
Профиль формата : Main@Main
Параметр BVOP формата : Да
Параметр матрицы формата : Выборочная
Параметр GOP формата : Variable
Продолжительность : 20 м.
Вид битрейта : Переменный
Битрейт : 5364 Кбит/сек
Максимальный битрейт : 7800 Кбит/сек
Ширина : 720 пикселей
Высота : 480 пикселей
Соотношение сторон : 16:9
Частота кадров : 23,976 (24000/1001) кадра/сек
Цветовое пространство : YUV
Субдискретизация насыщенности : 4:2:0
Битовая глубина : 8 бит
Тип развёртки : Прогрессивная
Порядок развёртки : 2:3 Pulldown
Метод сжатия : С потерями
Бит/(Пиксели*Кадры) : 0.647
Временной код первого кадра : 02:03:39;24
Оригинал временного кода : Group of pictures header
Размер потока : 780 Мбайт (76%)
Аудио #1
Идентификатор : 189 (0xBD)-128 (0x80)
Формат : AC-3
Формат/Информация : Audio Coding 3
Расширение режима : CM (complete main)
Параметр Endianness формата : Big
Режим смешивания : DVD-Video
Продолжительность : 20 м.
Вид битрейта : Постоянный
Битрейт : 448 Кбит/сек
Каналы : 6 каналов
Расположение каналов : Front: L C R, Side: L R, LFE
Частота : 48,0 КГц
Частота кадров : 31,250 кадров/сек (1536 spf)
Метод сжатия : С потерями
Задержка видео : -690 мс.
Размер потока : 65,2 Мбайт (6%)
Аудио #2
Идентификатор : 189 (0xBD)-129 (0x81)
Формат : AC-3
Формат/Информация : Audio Coding 3
Расширение режима : CM (complete main)
Параметр Endianness формата : Big
Режим смешивания : DVD-Video
Продолжительность : 20 м.
Вид битрейта : Постоянный
Битрейт : 448 Кбит/сек
Каналы : 6 каналов
Расположение каналов : Front: L C R, Side: L R, LFE
Частота : 48,0 КГц
Частота кадров : 31,250 кадров/сек (1536 spf)
Метод сжатия : С потерями
Задержка видео : -722 мс.
Размер потока : 65,2 Мбайт (6%)
Аудио #3
Идентификатор : 189 (0xBD)-130 (0x82)
Формат : AC-3
Формат/Информация : Audio Coding 3
Расширение режима : CM (complete main)
Параметр Endianness формата : Big
Режим смешивания : DVD-Video
Продолжительность : 20 м.
Вид битрейта : Постоянный
Битрейт : 448 Кбит/сек
Каналы : 6 каналов
Расположение каналов : Front: L C R, Side: L R, LFE
Частота : 48,0 КГц
Частота кадров : 31,250 кадров/сек (1536 spf)
Метод сжатия : С потерями
Задержка видео : -722 мс.
Размер потока : 65,2 Мбайт (6%)
Аудио #4
Идентификатор : 189 (0xBD)-131 (0x83)
Формат : AC-3
Формат/Информация : Audio Coding 3
Профиль формата : Dolby Digital
Расширение режима : CM (complete main)
Параметр Endianness формата : Big
Режим смешивания : DVD-Video
Продолжительность : 20 м.
Вид битрейта : Постоянный
Битрейт : 192 Кбит/сек
Каналы : 2 канала
Расположение каналов : Front: L R
Частота : 48,0 КГц
Частота кадров : 31,250 кадров/сек (1536 spf)
Метод сжатия : С потерями
Задержка видео : -690 мс.
Размер потока : 27,9 Мбайт (3%)
Текст #1
Идентификатор : 189 (0xBD)-32 (0x20)
Формат : RLE
Формат/Информация : Run-length encoding
Режим смешивания : DVD-Video
Продолжительность : 20 м.
Задержка видео : 1 с. 868 мс.
Текст #2
Идентификатор : 189 (0xBD)-33 (0x21)
Формат : RLE
Формат/Информация : Run-length encoding
Режим смешивания : DVD-Video
Продолжительность : 20 м.
Задержка видео : 1 с. 335 мс.
Меню
Продолжительность : 20 м.
Исходником послужил лицензионный DVD9 из-за рубежа. Испанскую звуковую дорожку заменил на дубляж вместе с субтитрами. Французскую звуковую дорогу заменил на авторскую от Есарева.
Предупреждающие надписи скрыл.
Доп. материалы переведены русскими субтитрами.
Использовались программы: MKVExtractGUI2, PgcDemux, DVD ReMake Pro, Adobe PhotoShop, MuxMan, MaestroSBT, DVDSubEdit.


_________________
Проголосуй за трекер Открытый торрент трекер - RUS-MEDIA.ORG

Проголосуй Открытый торрент трекер - RUS-MEDIA.ORG



реклама партнёра


Вернуться к началу
 Профиль Отправить личное сообщение  
 
   Похожие торренты   Автор   Торрент   Размер 
В этой теме нет новых непрочитанных сообщений. Джейсон Борн / Jason Bourne [боевик, триллер, 2016] HDTVRip, avo

marya111

70 | 2

749.59 МБ

В этой теме нет новых непрочитанных сообщений. Джейсон Борн / Jason Bourne [боевик, триллер, 2016] HDRip, Dub [Лицензия]

salma3

1743 | 654

2.18 ГБ

В этой теме нет новых непрочитанных сообщений. Джейсон Борн / Jason Bourne (Боевик, триллер, 2016) WEB-DLRip от Kaztorrents | КПК | L1

marya111

0 | 0

791.14 МБ

В этой теме нет новых непрочитанных сообщений. Джейсон Борн / Jason Bourne ( боевик, триллер, 2016) BDRip 720p | D, A

marya111

133 | 29

8.35 ГБ

В этой теме нет новых непрочитанных сообщений. Джейсон Борн / Jason Bourne (Боевик, триллер, 2016) WEB-DL 1080p | Line

marya111

7236 | 543

4.61 ГБ

В этой теме нет новых непрочитанных сообщений. Джейсон Борн / Jason Bourne [боевик, триллер, 2016] HDRip, Dub [Лицензия]

salma3

3473 | 330

1.46 ГБ

В этой теме нет новых непрочитанных сообщений. Джейсон Борн / Jason Bourne (Боевик, триллер, 2016) WEB-DLRip от MegaPeer | L1

marya111

0 | 0

748.08 МБ


Начать новую тему Ответить на тему  [ 1 сообщение ] 




Для Мосгорсуда, Роскомнадзора и рекламодателей:: mosgorsud-torrent[собачка]yandex.ru