Торрент файл
скачать торрент магнет ссылка Добавлен: 16 ноя 2016, 14:09
Размер: 4.03 ГБ
Сидеров: 78
Личеров: 15
Статус: (salma3)
Автор

СообщениеДобавлено: 16 ноя 2016, 14:09 

Не в сети
Супермодератор
Аватара пользователя
Дата регистрации:
15 фев 2012, 16:44
Возраст: 27
Спасибо: 5121 / 2089
Сообщения: 17342
Год выпуска: 2015
Производство: США / Lionsgate, Black Label Media, Thunder Road
Жанр: Боевик, триллер, драма, криминал, детектив
Режиссер: Дени Вильнёв
Продюсеры: Бэзил Иваник, Тэд Лакинбилл, Трент Лакинбилл

Актеры: Эмили Блант, Бенисио Дель Торо, Джош Бролин, Виктор Гарбер, Джон Бернтал, Дэниэл Калуя, Джеффри Донован, Рауль Трухильо, Хулио Седильо, Хэнк Роджерсон

Описание:
Безлюдные пустоши, по которым проходит граница между Мексикой и США, — это территория без правил, поле битвы между мексиканскими наркокартелями и американскими спецслужбами. Агент ФБР Кейт Мэйсер, которая работает в приграничных районах, старается придерживаться собственных идеалов, хотя и начинает ощущать, что исход войны с наркотрафиком складывается не в пользу служителей закона. Однажды ей предоставляется шанс принять участие в работе элитного подразделения по борьбе с наркотиками, возглавляемого агентом Мэттом Грейвером. Самый загадочный участник команды — местный консультант, человек без имени, привычек, и, кажется, без прошлого. Его истинное лицо откроется только в ходе рискованной операции, во время которой Кейт будет вынуждена поступиться собственными принципами, чтобы остаться в живых.

Перевод: Дублированный (iTunes)
Субтитры: Английские, русские

Дата мировой премьеры: 19 мая 2015
Дата российской премьеры: 26 ноября 2015, «WDSSPR»

Продолжительность: 02:01:10
Качество видео: DVD5
Видео: MPEG-2, 720x480@853x480 (NTSC 16:9), ~4100 Кбит/сек
Аудио 1: AC3 5.1, 448 Кбит/сек [Английский - оригинал]
Аудио 2: AC3 5.1, 384 Кбит/сек [Русский - дублированный]
Title: Sicario (2015) DVD5 NTSC
Size: 4.03 Gb ( 4 230 414,00 KBytes ) - DVD-5
Enabled regions: 1, 2, 3, 4, 5, 6, 7, 8
VTS_01 :
Play Length: 02:01:10
Video: NTSC 16:9 (720x480) VBR, Auto Letterboxed
Audio:
English (Dolby AC3, 6 ch)
Russian (Dolby AC3, 6 ch)
Subtitles:
English
English
Russian
Russian
* Menus Information *
VIDEO_TS Menu
Video:
NTSC 4:3 (720x480) VBR
English Language Unit :
Title Menu
VTS_01 Menu
Video:
NTSC 16:9 (720x480) VBR
Auto Letterboxed
Audio:
Not specified (Dolby AC3, 2 ch)
English Language Unit :
Root Menu
Общее
Полное имя : G:ВидеоSicario (2015) DVD5 NTSCVIDEO_TSVTS_01_2.VOB
Формат : MPEG-PS
Размер файла : 1024 Мбайт
Продолжительность : 28 м.
Режим общего битрейта : Переменный
Общий поток : 5045 Кбит/сек
Видео
Идентификатор : 224 (0xE0)
Формат : MPEG Video
Версия формата : Version 2
Профиль формата : Main@Main
Параметр BVOP формата : Да
Параметр матрицы формата : Выборочная
Параметр GOP формата : Variable
Продолжительность : 28 м.
Вид битрейта : Переменный
Битрейт : 4113 Кбит/сек
Максимальный битрейт : 8184 Кбит/сек
Ширина : 720 пикселей
Высота : 480 пикселей
Соотношение сторон : 16:9
Частота кадров : 23,976 (24000/1001) кадра/сек
Цветовое пространство : YUV
Субдискретизация насыщенности : 4:2:0
Битовая глубина : 8 бит
Тип развёртки : Прогрессивная
Порядок развёртки : 2:3 Pulldown
Метод сжатия : С потерями
Бит/(Пиксели*Кадры) : 0.496
Временной код первого кадра : 00:28:56:11
Оригинал временного кода : Group of pictures header
GOP, открыто/закрыто : Открыто
GOP, открыто/закрыто на первом кадре : Закрыто
Размер потока : 835 Мбайт (82%)
Аудио #1
Идентификатор : 189 (0xBD)-128 (0x80)
Формат : AC-3
Формат/Информация : Audio Coding 3
Расширение режима : CM (complete main)
Параметр Endianness формата : Big
Режим смешивания : DVD-Video
Продолжительность : 28 м.
Вид битрейта : Постоянный
Битрейт : 448 Кбит/сек
Каналы : 6 каналов
Расположение каналов : Front: L C R, Side: L R, LFE
Частота : 48,0 КГц
Частота кадров : 31,250 кадров/сек (1536 spf)
Метод сжатия : С потерями
Задержка видео : -535 мс.
Размер потока : 90,9 Мбайт (9%)
Аудио #2
Идентификатор : 189 (0xBD)-129 (0x81)
Формат : AC-3
Формат/Информация : Audio Coding 3
Расширение режима : CM (complete main)
Параметр Endianness формата : Big
Режим смешивания : DVD-Video
Продолжительность : 28 м.
Вид битрейта : Постоянный
Битрейт : 384 Кбит/сек
Каналы : 6 каналов
Расположение каналов : Front: L C R, Side: L R, LFE
Частота : 48,0 КГц
Частота кадров : 31,250 кадров/сек (1536 spf)
Метод сжатия : С потерями
Задержка видео : -535 мс.
Размер потока : 77,9 Мбайт (8%)
Текст #1
Идентификатор : 189 (0xBD)-34 (0x22)
Формат : RLE
Формат/Информация : Run-length encoding
Режим смешивания : DVD-Video
Текст #2
Идентификатор : 189 (0xBD)-35 (0x23)
Формат : RLE
Формат/Информация : Run-length encoding
Режим смешивания : DVD-Video
Меню
Исходник: Убийца / Sicario (2015) DVD9 | Custom | iTunes, A
Удалены: доп материалы, звуковая дорожка Есарева (в меню кнопки затёрты).
Команды диска переписаны заново, оставлен один VTS.
Видео сжато на 36,0%
Меню: статичное, недействующие кнопки затерты и закрыты.
Обработка и сжатие: DVD ReMake Pro + DVD Rebuilder + CCE SP2 [7 проходов] + Работа с меню (Adobe PhotoShop и MuxMan).


_________________



реклама партнёра


Вернуться к началу
 Профиль Отправить личное сообщение  
 
   Похожие торренты   Автор   Торрент   Размер 
В этой теме нет новых непрочитанных сообщений. Убийца / Sicario (Дени Вильнёв) [Боевик, триллер, драма, криминал, детектив, 2015] BDRip 1080p, dub+sub [iTunes]

Dracon

1173 | 132

7.54 ГБ

В этой теме нет новых непрочитанных сообщений. Убийца / Sicario [боевик, триллер, драма, криминал, детектив, 2015] BDRip-AVC, Dub

salma3

100 | 2

2.13 ГБ

В этой теме нет новых непрочитанных сообщений. Убийца / Sicario [боевик, триллер, драма, криминал, детектив, 2015] BDRip-AVC, Dub

salma3

61 | 5

1.4 ГБ

В этой теме нет новых непрочитанных сообщений. Убийца / Sicario (Дени Вильнёв) [Боевик, триллер, драма, криминал, детектив, 2015] HDRip, dub [Line]

Dracon

2730 | 87

2.08 ГБ

В этой теме нет новых непрочитанных сообщений. Убийца / Sicario (Дени Вильнёв) [Боевик, триллер, драма, криминал, детектив, 2015] HDRip [Есарев (цензура)]

Dracon

1156 | 18

1.47 ГБ

В этой теме нет новых непрочитанных сообщений. Убийца / Sicario (Дени Вильнёв) [Боевик, триллер, драма, криминал, детектив, 2015] BDRip 1080p [Есарев]

Dracon

1993 | 122

8.92 ГБ

В этой теме нет новых непрочитанных сообщений. Убийца / Sicario (Дени Вильнёв) [Боевик, триллер, драма, криминал, детектив, 2015] HDRip, dub [Чистый звук]

Dracon

5181 | 148

1.46 ГБ


Начать новую тему Ответить на тему  [ 1 сообщение ] 




Для Мосгорсуда, Роскомнадзора и рекламодателей:: mosgorsud-torrent[собачка]yandex.ru