Торрент файл
скачать торрент магнет ссылка Добавлен: 16 ноя 2016, 13:42
Размер: 4.37 ГБ
Сидеров: 45
Личеров: 27
Статус: (salma3)
Автор

СообщениеДобавлено: 16 ноя 2016, 13:42 

Не в сети
Супермодератор
Аватара пользователя
Дата регистрации:
15 фев 2012, 16:44
Возраст: 27
Спасибо: 5143 / 2090
Сообщения: 17495
Год выпуска: 2016
Производство: США, Великобритания / Walt Disney Pictures
Жанр: Фэнтези, приключения, семейный
Режиссер: Джеймс Бобин
Продюсеры: Тим Бёртон, Джо Рот, Дженнифер Тодд

Актеры: Миа Васиковска, Джонни Депп, Хелена Бонем Картер, Энн Хэтэуэй, Саша Барон Коэн, Рис Иванс, Мэтт Лукас, Линдси Дункан, Лео Билл, Джеральдин Джеймс

Описание:
На этот раз главной героине предстоит отправиться в путешествие во времени, полное неожиданностей и ярких открытий, чтобы спасти своего друга, Безумного Шляпника.

Перевод: Дублированный
Субтитры: Английские, русские

Дата мировой премьеры: 10 мая 2016
Дата российской премьеры: 26 мая 2016, «WDSSPR»
Дата выхода DVD релиза: 26 августа 2016, «Уолт Дисней Компани СНГ»

Продолжительность: 01:52:51
Качество видео: DVD5
Видео: MPEG-2, 720x480@853x480 (NTSC 16:9), ~4500 Кбит/сек
Аудио 1: AC3 5.1, 448 Кбит/сек [Английский - оригинал]
Аудио 2: AC3 5.1, 448 Кбит/сек [Русский - дублированный]
Title: Alice Through the Looking Glass (2016) DVD5 NTSC
Size: 4.37 Gb ( 4 586 494,00 KBytes ) - DVD-5
Enabled regions: 1, 2, 3, 4, 5, 6, 7, 8
VTS_01 :
Play Length: 00:00:00
Video: NTSC 4:3 (720x480) VBR
VTS_02 :
Play Length: 01:52:51+00:00:02+00:00:03
Video: NTSC 16:9 (720x480) VBR, Auto Letterboxed
Audio:
English (Dolby AC3, 6 ch)
Russian (Dolby AC3, 6 ch)
Subtitles:
English
Russian
English
Russian
* Menus Information *
VIDEO_TS Menu
Video:
NTSC 16:9 (720x480) VBR
Auto Pan&Scan
Audio:
Not specified (Dolby AC3, 2 ch)
English Language Unit :
Title Menu
VTS_01 Menu
Video:
NTSC 16:9 (720x480) VBR
Auto Pan&Scan
Audio:
Not specified (Dolby AC3, 2 ch)
English Language Unit :
Root Menu
Angle menu
VTS_02 Menu
Video:
NTSC 4:3 (720x480) VBR
Auto Pan&Scan, Auto Letterboxed
English Language Unit :
Root Menu
Chapter (PTT) Menu
Общее
Полное имя : G:ВидеоAlice Through the Looking Glass (2016) DVD5 NTSCVIDEO_TSVTS_02_1.VOB
Формат : MPEG-PS
Размер файла : 1024 Мбайт
Продолжительность : 25 м.
Режим общего битрейта : Переменный
Общий поток : 5511 Кбит/сек
Видео
Идентификатор : 224 (0xE0)
Формат : MPEG Video
Версия формата : Version 2
Профиль формата : Main@Main
Параметр BVOP формата : Нет
Параметр матрицы формата : Выборочная
Параметр GOP формата : Variable
Продолжительность : 25 м.
Вид битрейта : Переменный
Битрейт : 4505 Кбит/сек
Ширина : 720 пикселей
Высота : 480 пикселей
Соотношение сторон : 16:9
Частота кадров : 29,970 (30000/1001) кадров/сек
Стандарт вещания : NTSC
Цветовое пространство : YUV
Субдискретизация насыщенности : 4:2:0
Битовая глубина : 8 бит
Тип развёртки : Прогрессивная
Порядок развёртки : Верхнее поле первое
Метод сжатия : С потерями
Бит/(Пиксели*Кадры) : 0.435
Временной код первого кадра : 00:00:00:00
Оригинал временного кода : Group of pictures header
GOP, открыто/закрыто : Открыто
Размер потока : 837 Мбайт (82%)
Основные цвета : BT.601 NTSC
Характеристики трансфера : BT.601
Коэффициенты матрицы : BT.601
Аудио #1
Идентификатор : 189 (0xBD)-128 (0x80)
Формат : AC-3
Формат/Информация : Audio Coding 3
Расширение режима : CM (complete main)
Параметр Endianness формата : Big
Режим смешивания : DVD-Video
Продолжительность : 25 м.
Вид битрейта : Постоянный
Битрейт : 448 Кбит/сек
Каналы : 6 каналов
Расположение каналов : Front: L C R, Side: L R, LFE
Частота : 48,0 КГц
Частота кадров : 31,250 кадров/сек (1536 spf)
Метод сжатия : С потерями
Задержка видео : -49 мс.
Размер потока : 83,2 Мбайт (8%)
Аудио #2
Идентификатор : 189 (0xBD)-130 (0x82)
Формат : AC-3
Формат/Информация : Audio Coding 3
Расширение режима : CM (complete main)
Параметр Endianness формата : Big
Режим смешивания : DVD-Video
Продолжительность : 25 м.
Вид битрейта : Постоянный
Битрейт : 448 Кбит/сек
Каналы : 6 каналов
Расположение каналов : Front: L C R, Side: L R, LFE
Частота : 48,0 КГц
Частота кадров : 31,250 кадров/сек (1536 spf)
Метод сжатия : С потерями
Задержка видео : -49 мс.
Размер потока : 83,2 Мбайт (8%)
Текст #1
Идентификатор : 189 (0xBD)-32 (0x20)
Формат : RLE
Формат/Информация : Run-length encoding
Режим смешивания : DVD-Video
Текст #2
Идентификатор : 189 (0xBD)-33 (0x21)
Формат : RLE
Формат/Информация : Run-length encoding
Режим смешивания : DVD-Video
Меню
Исходник: Алиса в Зазеркалье / Alice Through the Looking Glass (2016) DVD9 | Custom
Удалены: доп материалы, описательная звуковая дорожка (в меню кнопки затёрты).
Команды диска переписаны заново, оставлено два VTS.
Видео сжато на 29,2%
Меню: статичное, недействующие кнопки затерты и закрыты.
Обработка и сжатие: DVD ReMake Pro + DVD Rebuilder + CCE SP2 [7 проходов] + Работа с меню (Adobe PhotoShop и MuxMan).



_________________



реклама партнёра


Вернуться к началу
 Профиль Отправить личное сообщение  
 
   Похожие торренты   Автор   Торрент   Размер 
В этой теме нет новых непрочитанных сообщений. Алиса в Зазеркалье / Alice Through the Looking Glass [фэнтези, приключения, семейный, 2016] BDRip, Dub [лицензия]

salma3

461 | 40

2.18 ГБ

В этой теме нет новых непрочитанных сообщений. Алиса в Зазеркалье / Alice Through the Looking Glass [фэнтези, приключения, семейный, 2016] BDRip-AVC, Dub [лицензия]

salma3

143 | 38

2.15 ГБ

В этой теме нет новых непрочитанных сообщений. Алиса в Зазеркалье / Alice Through the Looking Glass [фэнтези, приключения, семейный, 2016] BDRip, Dub [лицензия]

salma3

1472 | 129

1.46 ГБ

В этой теме нет новых непрочитанных сообщений. Алиса в Зазеркалье / Alice Through the Looking Glass [фэнтези, приключения, семейный, 2016] BDRip 720p, Dub [лицензия]

salma3

298 | 92

7.38 ГБ

В этой теме нет новых непрочитанных сообщений. Повторный Алиса в Зазеркалье / Alice Through the Looking Glass ( фэнтези, приключения, семейный, 2016) BDRip от ExKinoRay | Лицензия Данный торрент является блокированным, причина: повторный торрент

marya111

0 | 0

1.46 ГБ

В этой теме нет новых непрочитанных сообщений. Алиса в Зазеркалье / Alice Through the Looking Glass [фэнтези, приключения, семейный, 2016] BDRip 1080p, Dub [лицензия]

salma3

6 | 12

15.27 ГБ

В этой теме нет новых непрочитанных сообщений. Алиса в Зазеркалье [Фэнтези, приключения, семейный, 2016] Blu-Ray 1080p, Dub [3D-Video] [Лицензия]

marya111

63 | 52

45.7 ГБ


Начать новую тему Ответить на тему  [ 1 сообщение ] 




Для Мосгорсуда, Роскомнадзора и рекламодателей:: mosgorsud-torrent[собачка]yandex.ru