Торрент файл
скачать торрент магнет ссылка Добавлен: 01 авг 2016, 11:52
Размер: 4.37 ГБ
Сидеров: 28
Личеров: 14
Автор

СообщениеДобавлено: 01 авг 2016, 11:52 

В сети
Супермодератор
Аватара пользователя
Дата регистрации:
15 фев 2012, 16:44
Возраст: 27
Спасибо: 5139 / 2089
Сообщения: 17411
Год выхода: 2016
Жанр: фантастика, боевик, приключения
Режиссер: Зак Снайдер
В ролях: Генри Кавилл, Бен Аффлек, Галь Гадот, Эми Адамс, Джесси Айзенберг, Джереми Айронс, Дайан Лэйн, Лоренс Фишбёрн, Холли Хантер, Скут МакНэри

О фильме:
Опасаясь, что действия богоподобного супергероя так и останутся бесконтрольными, грозный и могущественный страж Готэм Сити бросает вызов самому почитаемому в наши дни спасителю Метрополиса, в то время как весь остальной мир решает, какой герой ему по-настоящему нужен. И пока Бэтмен и Супермен пребывают в состоянии войны друг с другом, возникает новая угроза, которая ставит человечество под самую большую опасность, с которой оно когда-либо сталкивалось.




Страна: США
Продолжительность: 145 мин. / 02:25
Перевод: полное дублирование

Файл
Кодек: MPEG2
Качество: DVD5 (сжатый)
Видео: PAL 16:9 (720x576@1024x576) VBR 3445 Kbps, 25.000 fps
Аудио: Dolby AC3, 6 ch, 48.0 KHz, 384 Kbps (русский, английский)
Субтитры: русские, английские, чешские, эстонские, латышские, литовские, португальские

Общее
Полное имя : D:Batman v Superman. Dawn of Justice (2016) DVD5VIDEO_TSVTS_01_1.VOB
Формат : MPEG-PS
Размер файла : 1024 Мбайт
Продолжительность : 33 м.
Режим общего битрейта : Переменный
Общий поток : 4298 Кбит/сек
Видео
Идентификатор : 224 (0xE0)
Формат : MPEG Video
Версия формата : Version 2
Профиль формата : Main@Main
Параметр BVOP формата : Да
Параметр матрицы формата : Выборочная
Параметр GOP формата : Variable
Структура изображения : Frame
Продолжительность : 33 м.
Вид битрейта : Переменный
Битрейт : 3445 Кбит/сек
Максимальный битрейт : 7759 Кбит/сек
Ширина : 720 пикселей
Высота : 576 пикселей
Соотношение сторон : 16:9
Частота кадров : 25,000 кадров/сек
Стандарт вещания : PAL
Цветовое пространство : YUV
Субдискретизация насыщенности : 4:2:0
Битовая глубина : 8 бит
Тип развёртки : Чересстрочная
Порядок развёртки : Верхнее поле первое
Метод сжатия : С потерями
Бит/(Пиксели*Кадры) : 0.332
Временной код первого кадра : 00:00:00:00
Оригинал временного кода : Group of pictures header
GOP, открыто/закрыто : Открыто
GOP, открыто/закрыто на первом кадре : Закрыто
Размер потока : 821 Мбайт (80%)
Аудио #1
Идентификатор : 189 (0xBD)-128 (0x80)
Формат : AC-3
Формат/Информация : Audio Coding 3
Расширение режима : CM (complete main)
Параметр Endianness формата : Big
Режим смешивания : DVD-Video
Продолжительность : 33 м.
Вид битрейта : Постоянный
Битрейт : 384 Кбит/сек
Каналы : 6 каналов
Расположение каналов : Front: L C R, Side: L R, LFE
Частота : 48,0 КГц
Частота кадров : 31,250 кадров/сек (1536 spf)
Метод сжатия : С потерями
Размер потока : 91,5 Мбайт (9%)
Аудио #2
Идентификатор : 189 (0xBD)-130 (0x82)
Формат : AC-3
Формат/Информация : Audio Coding 3
Расширение режима : CM (complete main)
Параметр Endianness формата : Big
Режим смешивания : DVD-Video
Продолжительность : 33 м.
Вид битрейта : Постоянный
Битрейт : 384 Кбит/сек
Каналы : 6 каналов
Расположение каналов : Front: L C R, Side: L R, LFE
Частота : 48,0 КГц
Частота кадров : 31,250 кадров/сек (1536 spf)
Метод сжатия : С потерями
Размер потока : 91,5 Мбайт (9%)
Текст #1
Идентификатор : 189 (0xBD)-32 (0x20)
Формат : RLE
Формат/Информация : Run-length encoding
Режим смешивания : DVD-Video
Задержка видео : 17 с.
Текст #2
Идентификатор : 189 (0xBD)-33 (0x21)
Формат : RLE
Формат/Информация : Run-length encoding
Режим смешивания : DVD-Video
Задержка видео : 17 с.
Текст #3
Идентификатор : 189 (0xBD)-34 (0x22)
Формат : RLE
Формат/Информация : Run-length encoding
Режим смешивания : DVD-Video
Задержка видео : 17 с.
Текст #4
Идентификатор : 189 (0xBD)-35 (0x23)
Формат : RLE
Формат/Информация : Run-length encoding
Режим смешивания : DVD-Video
Задержка видео : 17 с.
Текст #5
Идентификатор : 189 (0xBD)-36 (0x24)
Формат : RLE
Формат/Информация : Run-length encoding
Режим смешивания : DVD-Video
Задержка видео : 17 с.
Текст #6
Идентификатор : 189 (0xBD)-37 (0x25)
Формат : RLE
Формат/Информация : Run-length encoding
Режим смешивания : DVD-Video
Текст #7
Идентификатор : 189 (0xBD)-38 (0x26)
Формат : RLE
Формат/Информация : Run-length encoding
Режим смешивания : DVD-Video
Задержка видео : 17 с.
Меню



_________________



реклама партнёра


Вернуться к началу
 Профиль Отправить личное сообщение  
 
   Похожие торренты   Автор   Торрент   Размер 
В этой теме нет новых непрочитанных сообщений. Бэтмен против Супермена: На заре справедливости / Batman v Superman: Dawn of Justice [фантастика, фэнтези, боевик, приключения, 2016] CAMRip, Dub

salma3

6137 | 374

1.46 ГБ

В этой теме нет новых непрочитанных сообщений. Бэтмен против Супермена: На заре справедливости / Batman v Superman: Dawn of Justice [Фантастика, фэнтези, боевик, приключения, 2016] WEB-DLRip, Dub [Чистый Звук]

salma3

90 | 2

1.37 ГБ

В этой теме нет новых непрочитанных сообщений. Бэтмен против Супермена: На заре справедливости / Batman v Superman: Dawn of Justice [Фантастика, фэнтези, боевик, приключения, 2016] WEB-DLRip, Dub [Чистый Звук]

salma3

2136 | 76

2.05 ГБ

В этой теме нет новых непрочитанных сообщений. Бэтмен против Супермена: На заре справедливости / Batman v Superman: Dawn of Justice [2016, фантастика, фэнтези, боевик, приключения, DCPrip | 2K, Hi10P | Тизер-трейлер]

Nickolas3435

255 | 20

539.67 МБ

В этой теме нет новых непрочитанных сообщений. Бэтмен против Супермена: На заре справедливости / Batman v Superman: Dawn of Justice (2016) BDRip 1080p от HELLYWOOD | Расширенная версия | Лицензия, P, A

marya111

40 | 12

20.91 ГБ

В этой теме нет новых непрочитанных сообщений. Бэтмен против Робина / Batman vs. Robin [боевик, приключения, 2015] WEB-DL 1080p, Avo+Sub

salma3

19 | 4

3.17 ГБ

В этой теме нет новых непрочитанных сообщений. Бэтмен против Робина / Batman vs. Robin (Джей Олива) [Мультфильм, боевик, приключения, 2015] HDRip, mvo [Чистый звук]

Dracon

101 | 6

1.37 ГБ


Начать новую тему Ответить на тему  [ 1 сообщение ] 




Для Мосгорсуда, Роскомнадзора и рекламодателей:: mosgorsud-torrent[собачка]yandex.ru